Колекція Едвіна Портера (92 фільми) / Edwin S. Porter Shorts (1898-1908) , | sub Ukr

Нові коментарі

Нова тема   Відповісти
Останній раз роздавалося hucul (2020-07-19)
Автор Повідомлення
Demetrios 
VIP


З нами з: 28.01.10
Востаннє: 12.08.20
Повідомлень: 313

2013-01-11 20:38  
Колекція короткометражок Едвіна Портера (92 фільми)
Edwin S. Porter Shorts (1898-1908) , | sub Ukr

Колекція Едвіна Портера (92 фільми) / Edwin S. Porter Shorts (1898-1908) , | sub Ukr


Жанр: німе кіно, комедія, документальний, вестерн
Країна: США
IMDB: сторінка режисера
Кіностудія / кінокомпанія: Edison Manufacturing Company
Режисер: Едвін Портер / Edwin S. Porter
Актори: А. Абаді / A.C. Abadie, Ґілберт Андерсон / Gilbert M. Anderson, Джордж Барнс / George Barnes, Мері Сноу / Mary Snow і багато інших

Сюжет:
Едвін Стентон Портер (Edwin Stanton Porter, 21 квітня 1870 — 30 квітня 1941) — американський піонер раннього кіно, найбільш відомий як режисер компанії Томаса Едісона. З-поміж більш як 250 відомих фільмів Едвіна Портера (збереглися далеко не всі) найбільш вплив на історію кіно справив вестерн «Велике пограбування потягу» (The Great Train Robbery, 1903). Також мали значення такі роботи як «Життя американського пожежника» (Life of an American Fireman, 1903), де поєднувалися документальні і художні кадри; «Клептоманка» (The Kleptomaniac, 1905), яка піднімала гострі соціальні питання; «Смішильний газ» (Laughing Gas, 1907) з одним із перших позитивних зображень афроамериканців у кіно.

Збереглися, фактично, тільки ті короткометражні фільмі, які Портер знімав у студії Томаса Едісона, тобто до 1908 року. Потім режисер перейшов до інших компаній, де пробував знімати і повнометражні фільми, зокрема за участю Мері Пікфорд (Тесс з країни буревіїв / Tess of the Storm Country, 1914). Збереглося лише кілька повнометражних фільмів з пізнього періоду творчості, однак на DVD вони не виходили (крім напівлюбительського оцифрування плівок). Як і Жорж Мельєс, Портер не зумів адаптуватися до змін у кінематографічній мові й у 1915 році полишив режисуру. Решту свого життя він займався створенням і вдосконаленням кінопроекторів.

У збірці представлені майже всі короткометражні фільми Портера, яка збереглися. Ресурс «The Silent Era» лише кілька фільмів, окрім цих, позначає як такі, що точно збереглися. Статус решти позначений або як «невідомо», або як «втрачено».

Більше інфо про Едвіна Портера:
http://en.wikipedia.org/wiki/Edwin_Stanton_Porter
http://www.earlycinema.com/pioneers/porter_bio.html
http://www.silentera.com/people/directors/Porter-Edwin.S.html


ЗМІСТ
І. Фільми з музичним супроводом (в основній папці)

1) Фільми зі збірки "Edison: The Invention of the Movies"
Якісні DVD-ріпи відреставрованих версій із заново написаним музичним акомпанементом.

1898 Shooting Captured Insurgents - Розстріл упійманих заколотників
1901 Another Job for the Undertaker - Ще трохи роботи
1901 Old Maid Having Her Picture Taken - Портрет старої діви
1901 Pan-American Exposition by Night - Пан-американська виставка уночі
1901 Trapeze Disrobing Act - Роздягання на трапеції
1901 What Happened on Twenty-Third Street, New York City - Що сталося на 23-ій вулиці у Нью-Йорку
1902 Burlesque Suicide, No. 2 - Жартівливе самогубство, №2
1902 Interrupted Bathers - Перервані купальниці
1902 Jack and the Beanstalk - Джек Бобове Зерно
1902 The Burning of Durland's Riding Academy - Пожежа у Дарландській академії
1903 Electrocuting an Elephant - Електрична страта слона
1903 Life of an American Fireman - Життя американського пожежника
1903 Rector's to Claremont - Від Ректора до Клермонта
1903 The Gay Shoe Clerk - Веселий продавець взуття
1903 The Great Train Robbery - Велике пограбування потягу
1903 Uncle Tom's Cabin - Хатина дядька Тома
1903 What Happened in the Tunnel - Що трапилося в тунелі
1904 European Rest Cure - Європейський оздоровчий відпочинок
1904 How a French Nobleman Got a Wife Through the New York Herald Personal Columns - Як французький дворянин знайшов дружину в особистих колонках "Нью-Йорк Геральд"
1904 Nervy Nat Kisses the Bride - Нервовий Нет цілує наречену
1904 Scarecrow Pump - Опудало насосу
1904 The Ex-Convict - Колишній засуджений
1904 The Strenuous Life; or, Anti-Race Suicide - Напружене життя
1905 Coney Island at Night - Коні-Айленд уночі
1905 Life of an American Policeman - Життя американського полісмена
1905 Police Chasing Scorching Auto - Поліція ловить шалене авто
1905 The Kleptomaniac - Клептоманка
1905 The Little Train Robbery - Мале пограбування потягу
1905 The Miller's Daughter - Донька мірошника
1905 The Seven Ages - Сім літ
1905 The Train Wreckers - Залізничні шкідники
1905 The Watermelon Patch - Вотермелонська ділянка
1905 The White Caps - Білі ковпаки
1905 The Whole Dam Family and the Dam Dog - Уся сімейка Дамів та їхній пес
1906 Getting Evidence - Здобуття доказу
1906 Kathleen Mavourneen - Кетлін Мавурнін
1906 The Dream of a Rarebit Fiend - Мара грінок з сиром
1906 The Terrible Kids - Жахливі діти
1906 Three American Beauties - Три американські краси
1907 A Little Girl Who Did Not Believe in Santa Claus - Дівчинка, яка не вірила у Санта-Клауса
1907 A Suburbanite's Ingenious Alarm - Винахідлива тривога мешканця передмістя
1907 Cohen's Fire Sale - Коеновий розпродаж
1907 College Chums - Друзі студенти
1907 Laughing Gas - Смішильний газ
1907 The Rivals - Суперники
1907 The 'Teddy' Bears - Ведмедики
1907 The Trainer's Daughter - Донька тренера
1908 Cupid's Pranks - Витівки купідона
1908 Fireside Reminiscences - Спогади біля домашнього вогнища
1908 Rescued From an Eagle's Nest - Порятунок з орлиного гнізда
1908 Tale the Autumn Leaves Told (Fragment) - Легенда, оповідана осіннім листям (фрагмент, що зберігся)

2) Фільми з інших джерел
Кілька фільмів з інших тематичних збірок (DVD-ріпи) або з ютуб (якість погана)

1902 Fun in a Bakery Shop - Веселощі у булочній
1904 Buster Brown Series - Цикл про Бастера Брауна
1904 Maniac Chase - Шалена погоня
1905 How Jones Lost His Roll - Як Джонс усе втратив
1905 The Night Before Christmas - Ніч перед Різдвом
1906 A Winter Straw Ride - Зимова поїздка

ІІ. Фільми без музики (в підпапці "Without Audio")
Переважно це фільми з архіву Бібліотеки конґресу США (320p, avi), а також кілька з ютубу (mp4, якість погана).

1900 A Dull Razor - Тупа бритва
1900 An Animated Luncheon - Ланч ожив
1900 An Artist's Dream - Сон художника
1900 Ching Ling Foo Outdone - Чінґ Лінґ Фу перевершений
1900 Faust and Marguerite - Фауст і Маргарита
1900 The Kiss - Поцілунок
1900 The Magician - Маг
1900 The Mystic Swing - Містична гойдалка
1900 Uncle Josh in a Spooky Hotel - Дядько Джош у готелі привидів
1900 Uncle Josh's Nightmare - Кошмар дядька Джоша
1901 Circular Panorama of Electric Tower - Кругова панорама Електричної вежі
1901 Execution of Czolgosz with Panorama of Auburn Prison - Страта Чолґоша з панорамою Обернської в'язниці
1901 Kansas Saloon Smashers - Канзаські трощильниці салунів
1901 Laura Comstock's Bag-Punching Dog - Жвавий пес Лори Комсток
1901 Panorama of Esplanade by Night - Панорама еспланади уночі
1901 Sampson-Schley Controversy - Зіткнення Самсона і Шлей
1901 Terrible Teddy, the Grizzly King - Жахливий Тедді, король ґрізлі
1901 The Artist's Dilemma - Дилема художника
1901 The Martyred Presidents - Замордовані президенти
1901 The Tramp's Unexpected Skate - Несподівані ролики Трампа
1902 Babies Rolling Eggs - Діти кидаються яйцями
1902 Uncle Josh at the Moving Picture Show - Дядько Джош на кінопоказі
1903 A Romance of the Rail - Залізничний роман
1903 New York City Dumping Wharf - Вантаження на Нью-Йоркській пристані
1903 New York City 'Ghetto' Fish Market - Нью-Йоркський рибний ринок у ґетто
1903 Rube and Mandy at Coney Island - Рубі та Менді на Коні-Айленді
1903 Subub Surprises the Burglar - Субуб дивує злодюжку
1903 The Extra Turn - Додатковий поворот
1903 The Messenger Boy's Mistake - Помилка рознощика
1903 The Unappreciated Joke - Неоцінений жарт
1904 A Rube Couple at a County Fair - Подружжя Рубі на сільському святі
1904 Dog Factory - Собача фабрика
1905 Scenes and Incidents, Russo-Japanese Peace Conference, Portsmouth, N.H. - Сцени та події російсько-японської мирної конференції у Портсмуті 1905 року
1905 The Burglar's Slide for Life - Пригоди грабіжника
1906 Holdup of the Rocky Mountain Express - Напад на гірський експрес
Тривалість: кілька годин

Якість: (основна частина збірки)
Відео:
кодек:
розмір кадру: 576 х 432
бітрейт: ~2 000 кб/с

Аудіо:
мова: акомпанемент
переклад: оригінал
кодек: 2.0
бітрейт: 128 кб/с

Субтитри:
мова: українська
тип: програмні (м'які)
формат: *.srt
переклад з англійської: Demetrios

Інтертитри:
мова: англійська
Info для основної частини

Код:
Format                                   : AVI
Format/Info                              : Audio Video Interleave
File size                                : 19.2 MiB
Duration                                 : 1mn 21s
Overall bit rate mode                    : Variable
Overall bit rate                         : 1 979 Kbps
Writing application                      : VirtualDubMod 1.5.10.2 (build 2540/release)
Writing library                          : VirtualDub build 32706/release

Video
ID                                       : 0
Format                                   : MPEG-4 Visual
Format profile                           : Advanced [email protected]
Format settings, BVOP                    : 2
Format settings, QPel                    : No
Format settings, GMC                     : No warppoints
Format settings, Matrix                  : Default (H.263)
Muxing mode                              : Packed bitstream
Codec ID                                 :
Codec ID/Hint                            :
Duration                                 : 1mn 21s
Bit rate                                 : 1 849 Kbps
Width                                    : 576 pixels
Height                                   : 432 pixels
Display aspect ratio                     : 4:3
Frame rate                               : 23.976 fps
Color space                              : YUV
Chroma subsampling                       : 4:2:0
Bit depth                                : 8 bits
Scan type                                : Progressive
Compression mode                         : Lossy
Bits/(Pixel*Frame)                       : 0.310
Stream size                              : 18.0 MiB (93%)
Writing library                          : 1.2.1 (UTC 2008-12-04)

Audio
ID                                       : 1
Format                                   : MPEG Audio
Format version                           : Version 1
Format profile                           : Layer 3
Mode                                     : Joint stereo
Mode extension                           : MS Stereo
Codec ID                                 : 55
Codec ID/Hint                            : MP3
Duration                                 : 1mn 21s
Bit rate mode                            : Variable
Bit rate                                 : 116 Kbps
Nominal bit rate                         : 128 Kbps
Channel(s)                               : 2 channels
Sampling rate                            : 48.0 KHz
Compression mode                         : Lossy
Stream size                              : 1.13 MiB (6%)
Alignment                                : Aligned on interleaves
Interleave, duration                     : 24 ms (0.58 video frame)
Interleave, preload duration             : 158 ms
Writing library                          : LAME3.90.
Encoding settings                        : -m j -V 4 -q 2 -lowpass 17.6 --abr 128
Info (для The Night Before Christmas)

Код:
Format                                   : AVI
Format/Info                              : Audio Video Interleave
File size                                : 100 MiB
Duration                                 : 8mn 43s
Overall bit rate                         : 1 602 Kbps
Writing application                      : VirtualDubMod 1.5.4.1 (build 2178/release)
Writing library                          : VirtualDubMod build 2178/release

Video
ID                                       : 0
Format                                   : MPEG-4 Visual
Format profile                           : Advanced [email protected]
Format settings, BVOP                    : 1
Format settings, QPel                    : No
Format settings, GMC                     : No warppoints
Format settings, Matrix                  : Custom
Codec ID                                 :
Codec ID/Hint                            :
Duration                                 : 8mn 43s
Bit rate                                 : 1 435 Kbps
Width                                    : 528 pixels
Height                                   : 400 pixels
Display aspect ratio                     : 4:3
Frame rate                               : 23.976 fps
Color space                              : YUV
Chroma subsampling                       : 4:2:0
Bit depth                                : 8 bits
Scan type                                : Progressive
Compression mode                         : Lossy
Bits/(Pixel*Frame)                       : 0.283
Stream size                              : 89.6 MiB (90%)
Writing library                          : 1.2.1 (UTC 2008-12-04)

Audio
ID                                       : 1
Format                                   : MPEG Audio
Format version                           : Version 1
Format profile                           : Layer 3
Mode                                     : Joint stereo
Mode extension                           : MS Stereo
Codec ID                                 : 55
Codec ID/Hint                            : MP3
Duration                                 : 8mn 43s
Bit rate mode                            : Constant
Bit rate                                 : 160 Kbps
Channel(s)                               : 2 channels
Sampling rate                            : 48.0 KHz
Compression mode                         : Lossy
Stream size                              : 9.99 MiB (10%)
Alignment                                : Aligned on interleaves
Interleave, duration                     : 83 ms (2.00 video frames)
Interleave, preload duration             : 504 ms
Info (для фільмів з архіву Бібліотеки конґресу)

Код:
Format                                   : AVI
Format/Info                              : Audio Video Interleave
File size                                : 9.50 MiB
Duration                                 : 1mn 5s
Overall bit rate                         : 1 211 Kbps
Writing application                      : Lavf54.29.105

Video
ID                                       : 0
Format                                   : MPEG-4 Visual
Format profile                           : [email protected]
Format settings, BVOP                    : No
Format settings, QPel                    : No
Format settings, GMC                     : No warppoints
Format settings, Matrix                  : Default (H.263)
Codec ID                                 :
Codec ID/Hint                            :
Duration                                 : 1mn 5s
Bit rate                                 : 1 204 Kbps
Width                                    : 320 pixels
Height                                   : 240 pixels
Display aspect ratio                     : 4:3
Frame rate                               : 29.970 fps
Color space                              : YUV
Chroma subsampling                       : 4:2:0
Bit depth                                : 8 bits
Scan type                                : Progressive
Compression mode                         : Lossy
Bits/(Pixel*Frame)                       : 0.523
Stream size                              : 9.45 MiB (99%)
Writing library                          : Lavc54.63.100
Скріншоти
DVD-ріпи зі збірки фільмів студії Едісона:

Фільми з архіву Бібліотеки конґресу:

Фільми з YouTube:


Джерело: . Відео із зарубіжних трекерів, архіву Бібліотеки конґресу та ютуб. Переклад субтитрів (назви до всіх фільмів та інтертитри до фільмів, де вони є) власний, з англійської.
Особиста оцінка: 7 - сподобається тим, хто цікавиться витоками кінематографу та німим кіно.

Див. також:

Окремий реліз "Великого пограбування потягу" Е.Портера (кольорова і ч/б версії)

Інші мої релізи раннього німого кіно:
Фільми Вільяма Діксона (36 фільмів) / William K.L. Dickson Movies (1889-1902) , | sub Ukr
Сад насолод / The Pleasure Garden (1925) | sub Ukr (реж. Альфред Хічкок)
Ринг / Кохання дужого чоловіка / The Ring (1927) -AVC | sub Ukr (реж. Альфред Хічкок)
По схилу / Downhill (1927) | sub Ukr (реж. Альфред Хічкок)
Дружина фермера / The Farmer's Wife (1928) | sub Ukr (реж. Альфред Хічкок)
Легка поведінка / Easy Virtue (1928) | sub Ukr (реж. Альфред Хічкок)
Шампанське / Champagne (1928) -AVC | sub Ukr (реж. Альфред Хічкок)
Рекет / The Racket (1928) | sub Ukr (реж. Льюїс Майлстоун, фільм-нуар)


Золотий реліз (завантажене не впливає на рейтинг)
 Трекер:    Зареєстрований   

Завантажити / скачати фільм українською



відео для новачків



 Зареєстрований:   2013-01-11 20:38
 Розмір:   6.09 GB 
 Оцінка фільму:   10/10 (Голосів: 7)
   
Ваш часовий пояс: GMT + 2 Години

Нова тема   Відповісти