Путін, Росія і Захід / Putin, Russia and the West (2012) 720p Ukr, Eng | Sub Ukr

Нові коментарі

Нова тема   Відповісти
Автор Повідомлення
pohgejib 
VIP


З нами з: 06.06.08
Востаннє: 27.07.17
Повідомлень: 362

2013-01-06 13:54  
Путін, Росія і Захід / Putin, Russia and the West (2012) 720p Ukr, Eng | Sub Ukr


Жанр: документальний
Країна: Великобританія



Кіностудія / кінокомпанія: BBC
Режисер: Пол Мітчел
Сюжет:
В 2012 році британська телекомпанія BBC показала резонансний чотирисерійний документальний фільм "Путін, Росія і Захід". Як наголошується в анотації до фільму, його мета - дати проміжні підсумки перебування на посту президента і прем'єр-міністра Росії, "який, як видається ймовірним, у березні 2012-го буде знову обраний президентом Росії", Володимира Путіна.


Тривалість: 00:59:07, 00:59:14, 00:59:00, 00:59:09
Якість:
Відео:
кодек:
розмір кадру: 1280 х 720
бітрейт: 2700-3408 кб/с

Аудіо # 1:
мова: українська
переклад: професійний дубльований
кодек: MP3 2.0
бітрейт: 128 кб/с

Аудіо # 2:
мова: англійська
переклад: оригінал
кодек: 2.0
бітрейт: 192 кб/с
Info
D:\Movies\Putin.Russia.&.The.West.2012..720p.Ukr.Eng.HURTOM\Part 1 - Taking control .
General
Unique ID : 211680614937110086904736037792564870021 (0x9F40341845C04D2E87DE72F6B7F77B85)
Complete name : D:\Movies\Putin.Russia.&.The.West.2012..720p.Ukr.Eng.HURTOM\Part 1 - Taking control .
Format :
Format version : Version 2
File size : 1.57 GiB
Duration : 59mn 7s
Overall bit rate : 3 803 Kbps
Encoded date : UTC 2013-01-05 19:37:28
Writing application : mkvmerge v4.7.0 ('Just Like You Imagined') ç³áðàíî Apr 21 2011 01:13:14
Writing library : libebml v1.2.0 + libmatroska v1.1.0
Video #1
ID : 1
Format : AVC
Format/Info : Advanced Video Codec
Format profile : [email protected]
Format settings, CABAC : Yes
Format settings, ReFrames : 5 frames
Codec ID : V_MPEG4/ISO/AVC
Duration : 59mn 7s
Bit rate : 3 408 Kbps
Width : 1 280 pixels
Height : 720 pixels
Display aspect ratio : 16:9
Frame rate : 25.000 fps
Color space : YUV
Chroma subsampling : 4:2:0
Bit depth : 8 bits
Scan type : Progressive
Bits/(Pixel*Frame) : 0.148
Stream size : 1.41 GiB (90%)
Writing library : core 120 r2146 bcd41db
Encoding settings : cabac=1 / ref=5 / deblock=1:-1:-1 / analyse=0x3:0x113 / me=umh / subme=8 / psy=1 / psy_rd=1.00:0.15 / mixed_ref=1 / me_range=16 / chroma_me=1 / trellis=1 / 8x8dct=1 / cqm=0 / deadzone=21,11 / fast_pskip=1 / chroma_qp_offset=-3 / threads=18 / sliced_threads=0 / nr=0 / decimate=1 / interlaced=0 / bluray_compat=0 / constrained_intra=0 / bframes=3 / b_pyramid=2 / b_adapt=2 / b_bias=0 / direct=3 / weightb=1 / open_gop=0 / weightp=2 / keyint=250 / keyint_min=25 / scenecut=40 / intra_refresh=0 / rc_lookahead=50 / rc=crf / mbtree=1 / crf=21.0 / qcomp=0.60 / qpmin=0 / qpmax=69 / qpstep=4 / ip_ratio=1.40 / aq=1:1.00
Default : Yes
Forced : No
Audio #2
ID : 2
Format : MPEG Audio
Format version : Version 1
Format profile : Layer 3
Codec ID : A_MPEG/L3
Codec ID/Hint : MP3
Duration : 59mn 7s
Bit rate mode : Constant
Bit rate : 128 Kbps
Channel(s) : 2 channels
Sampling rate : 44.1 KHz
Compression mode : Lossy
Stream size : 54.1 MiB (3%)
Title : Óêðà¿íñüêà (1+1)
Language : Ukrainian
Default : Yes
Forced : Yes
Audio #3
ID : 3
Format : AC-3
Format/Info : Audio Coding 3
Mode extension : CM (complete main)
Codec ID : A_AC3
Duration : 59mn 7s
Bit rate mode : Constant
Bit rate : 192 Kbps
Channel(s) : 2 channels
Channel positions : Front: L R
Sampling rate : 48.0 KHz
Bit depth : 16 bits
Compression mode : Lossy
Delay relative to video : 30ms
Stream size : 81.2 MiB (5%)
Title : English
Language : English
Default : No
Forced : No
Text #4
ID : 4
Format : UTF-8
Codec ID : S_TEXT/UTF8
Codec ID/Info : UTF-8 Plain Text
Title : Óêðà¿íñüêà (ôîðñîâàí³)
Language : Ukrainian
Default : Yes
Forced : Yes
Джерело озвучення:


Субтитри:
мова: українська (форсовані)
тип: програмні (м'які)
формат: *.srt

Скріншоти


Подяка virtus8hur за українські доріжки, взяті з його роздачі.
Примітка: У версії 1+1 було вирізано кілька доволі цікавих моментів. На них є форсовані субтитри. Поширення на інших ресурсах тільки з посиланням на hurtom.com.


Джерело:
Особиста оцінка: 9 - давно не бачив настільки якісне кіно


 Трекер:    Зареєстрований   

Завантажити / скачати фільм українською



відео для новачків



 Зареєстрований:   2013-01-06 13:54
 Розмір:   5.53 GB 
 Оцінка фільму:   9.2/10 (Голосів: 13)
   
Leshchyshyn 
VIP


З нами з: 20.07.09
Востаннє: 22.08.17
Повідомлень: 471

2013-01-06 15:41  
Народ, хтось вже дивився, щось вартісне??

П.С. В описі сюжету біда з відмінками, що аж нічого не зрозуміло =) Ось, наприклад: Бі-бі-сі початку показ.

Ronaldo_KS 
Новенький


З нами з: 14.05.10
Востаннє: 22.08.17
Повідомлень: 20

2013-01-06 16:27  
Leshchyshyn, подивитись однозначно варто.
kmr 
Свій


З нами з: 18.04.10
Востаннє: 22.08.17
Повідомлень: 148

2013-01-06 21:56  
Дякую автору, люблю коли поливають грязю наших "гарних" сусідів)))
pohgejib 
VIP


З нами з: 06.06.08
Востаннє: 27.07.17
Повідомлень: 362

2013-01-06 22:32  
kmr написано:
поливають грязю наших "гарних" сусідів

у фільмі проста адекватна аналітика)

DiGen 
Модератор HD та координатор Команди HD
Модератор HD та координатор Команди HD


З нами з: 12.11.09
Востаннє: 24.06.13
Повідомлень: 1451

2013-01-07 10:57  
pohgejib написано:
Аудіо # 1:

Скільки каналів?

Сервіс radical.ru заборонено https://toloka.to/t201

Поставлю перевірено, але помилки повиправляти.

pohgejib 
VIP


З нами з: 06.06.08
Востаннє: 27.07.17
Повідомлень: 362

2013-01-07 11:35  
DiGen написано:
Скільки каналів?

по правилах формат має підтримувати не менше двох каналів. тут MP3. отже скільки?)

DiGen написано:
Сервіс radical.ru заборонено

тут radikal) порадьте тоді інші, не менш зручніші (з мультизавантаженням)

DiGen 
Модератор HD та координатор Команди HD
Модератор HD та координатор Команди HD


З нами з: 12.11.09
Востаннє: 24.06.13
Повідомлень: 1451

2013-01-07 11:54  
imageshack.us - особисто користуюсь тільки ним

Додано через 1 хвилину 53 секунди:

О, бачу вже використано imageshack.us, от тільки остання світлина (там, де бидлович) у форматі jpeg...

kmr 
Свій


З нами з: 18.04.10
Востаннє: 22.08.17
Повідомлень: 148

2013-01-08 18:59  
pohgejib
дуже гарна документалка, так все гарно описується і показуеться, як люди можуть голосувати за Януковича...це жах...(
дякую автору за гарний ріп, у гарній якості)))

pohgejib 
VIP


З нами з: 06.06.08
Востаннє: 27.07.17
Повідомлень: 362

2013-01-08 22:00  
kmr написано:
дякую автору

прошу)

Морж 
Частий відвідувач


З нами з: 23.01.09
Востаннє: 19.08.17
Повідомлень: 37

2013-03-03 14:46  
Ті, хто завантажують, зауважте -- при збірці цих було виставлено прапорець примусового використання української доріжки.

Через це на при відтворенні на вбудованому в телевізор плеєрі не можна перемкнути мову на англійську (принаймні, у мене на samsung c650). Довелося перезбирати контейнер -- для української мови: використовувати як типову "так", використовувати примусово "ні".

Ваш часовий пояс: GMT + 2 Години

Нова тема   Відповісти