Феї: Квадрологія + Змагання у долині фей / Tinker Bell Quadrilogy + Pixie Hollow Games (2008/2009/2010/2011/2012) 1080p | Sub Ukr/Eng

Нові коментарі

Нова тема   Відповісти
Сторінка:  1, 2  наступна
Автор Повідомлення
Anonymous 







2013-01-05 20:28  
Феї: Квадрологія + Змагання у долині фей / Tinker Bell Quadrilogy + Pixie Hollow Games (2008/2009/2010/2011/2012) 1080p | Sub Ukr/Eng

Феї: Квадрологія + Змагання у долині фей / Tinker Bell Quadrilogy + Pixie Hollow Games (2008/2009/2010/2011/2012) 1080p | Sub Ukr/Eng
Феї / Tinker Bell (2008) 1080p | Sub Ukr/Eng

Феї / Tinker Bell (2008) 1080p | Sub Ukr/Eng

Феї: Квадрологія + Змагання у долині фей / Tinker Bell Quadrilogy + Pixie Hollow Games (2008/2009/2010/2011/2012) 1080p | Sub Ukr/Eng


Жанр: мультфільм, фентезі, пригодницький, сімейний
Країна: США



Кіностудія / кінокомпанія: DisneyToon Studios, Prana Studios
Режисер: Бредлі Реймонд / Bradley Raymond
Ролі озвучують : Мей Уітман / Mae Whitman, Крістін Ченоует / Kristin Chenoweth, Равен-Саймоне / Raven-Symone, Люсі Ліу / Lucy Liu, Амеріка Феррера / America Ferrera, Джейн Горрокс / Jane Horrocks, Джессі МакКартні / Jesse McCartney, Джефф Беннетт / Jeff Bennett, Роб Полсен / Rob Paulsen, Памела Едлон / Pamela Adlon, Анжеліка Х'юстон / Anjelica Huston, Лоріна МакКеннітт / Loreena McKennitt, Стів Валентайн / Steve Valentine, Каті Наджімі / Kathy Najimy, Річард Портнов / Richard Portnow

Сюжет:
Ласкаво просимо в чарівний світ, населений чарівними мешканками Долини Фей. Це дивне місце, наповнене міфами, магією і чаклунством. Долина Фей – це ціле королівство, кожен мешканець якого володіє своїм, неповторним талантом, а всі разом феї виконують дуже важливу роботу – вони піклуються про природу і допомагають порам року змінювати один одного: допомагають листю міняти колір, сонячним променям – розтоплювати сніг, звірам, що залишилися на зимівлю – вибиратися зі своїх нір і барлогів. Фея Дінь-Дінь вважає, що її талант по лагодженню каструль і чайників, не так важливий, як уміння інших фей. Але коли Дінь-Дінь вирішує зайнятися чимось іншим, з цього не виходить нічого, окрім загального занепокоєння! За допомогою своїх коліжанок вона розуміє, що головне в житті – бути чесною з самою собою, і тоді народиться справжня магія.

Тривалість: 01:17:58
Якість: 1080p
Відео: (ріп від Gorelov (rutor)
кодек:
розмір кадру: 1920 x 1080
бітрейт: 7377 кб/с

Аудіо:
мова: українська
переклад: професійний дубльований
кодек: 5.1
бітрейт: 384 кб/с
Інформація про дубляж
Звукорежисер: Дмитро Яковлєв
Менеджер проекту: Лариса Шаталова
Ролі дублювали: Міа Вайтмен/Дінь-Дінь — Марина Локтіонова, Анжеліка Г'юстон/Королева Клеріон — Ольга Радчук, Крістін Ченвет/Розета — Тетяна Львова, Равен Сімоні/Ірідеса — Катерина Качан, Льюсі Ліу/Срібляночка — Ганна Кузіна, Амеріка Феррера/Фауна — Наталя Романько-Кисельова, Памела Едлон/Відія — Світлана Шекера, Джейн Горрокс — Тетяна Антонова, Джессі МакКартні/Теренс — Іван Оглоблін, Джефф Беннет — Сергій Солопай, Роб Полсен/Боббл — Іван Розін; а також: Євген Малуха, Євген Локтіонов, Маргарита Рімек, Богдана Котеленець, Юлія Горюнова, Людмила Ардельян, Михайло Жонін.
Вокальні партії: «Поява нових фей», «Поява нових фей» — реприза, «Будь самим собою» , «Лети за мрією» — виконавець: Юлія Горюнова
Дитячий хор: виконавці: Валентин Пархоменко і Олександр Сулійменко
Запис вокальних партій: Світлана Заря
Текст пісень: Ганна Розіна
Субтитри #1:
мова: українська
тип: програмні (м'які)
формат: *.srt

Субтитри #2:
мова: англійська
тип: програмні (м'які)
формат: *.srt

Оригінальні розділи: Збережено
Info

General
Unique ID : 179548590926332019134841079386229828272 (0x8713CCFF82444E67AEE8B0EB7C59EAB0)
Complete name : D:\Tinker.Bell.Quadrilogy.&.Pixie.Hollow.Games..1080p.Ukr\Tinker.Bell.2008..1080p.
Format :
Format version : Version 4 / Version 2
File size : 4.23 GiB
Duration : 1h 17mn
Overall bit rate : 7 761 Kbps
Movie name : Феї / Феи / Tinker Bell (2008)
Encoded date : UTC 2010-02-22 21:41:31
Writing application : mkvmerge v5.9.0 ('On The Loose') built on Dec 9 2012 15:37:01
Writing library : libebml v1.3.0 + libmatroska v1.4.0

Video
ID : 1
Format : AVC
Format/Info : Advanced Video Codec
Format profile : [email protected]
Format settings, CABAC : Yes
Format settings, ReFrames : 4 frames
Codec ID : V_MPEG4/ISO/AVC
Duration : 1h 17mn
Bit rate : 7 377 Kbps
Width : 1 920 pixels
Height : 1 080 pixels
Display aspect ratio : 16:9
Frame rate mode : Constant
Frame rate : 23.976 fps
Color space : YUV
Chroma subsampling : 4:2:0
Bit depth : 8 bits
Scan type : Progressive
Bits/(Pixel*Frame) : 0.148
Stream size : 3.93 GiB (93%)
Title : rip by Gorelov (Dimok)
Writing library : core 129 r2230 1cffe9f
Encoding settings : cabac=1 / ref=4 / deblock=1:0:0 / analyse=0x3:0x133 / me=umh / subme=10 / psy=1 / psy_rd=1.00:0.10 / mixed_ref=1 / me_range=32 / chroma_me=1 / trellis=2 / 8x8dct=1 / cqm=0 / deadzone=21,11 / fast_pskip=0 / chroma_qp_offset=-3 / threads=6 / lookahead_threads=1 / sliced_threads=0 / nr=0 / decimate=1 / interlaced=0 / bluray_compat=0 / constrained_intra=0 / bframes=3 / b_pyramid=2 / b_adapt=2 / b_bias=0 / direct=3 / weightb=1 / open_gop=0 / weightp=2 / keyint=240 / keyint_min=23 / scenecut=40 / intra_refresh=0 / rc_lookahead=66 / rc=2pass / mbtree=1 / bitrate=7377 / ratetol=1.0 / qcomp=0.62 / qpmin=0 / qpmax=69 / qpstep=4 / cplxblur=20.0 / qblur=0.5 / ip_ratio=1.40 / aq=1:1.00
Language : English
Default : Yes
Forced : No

Audio
ID : 2
Format : AC-3
Format/Info : Audio Coding 3
Mode extension : CM (complete main)
Format settings, Endianness : Big
Codec ID : A_AC3
Duration : 1h 17mn
Bit rate mode : Constant
Bit rate : 384 Kbps
Channel(s) : 6 channels
Channel positions : Front: L C R, Side: L R, LFE
Sampling rate : 48.0 KHz
Bit depth : 16 bits
Compression mode : Lossy
Stream size : 214 MiB (5%)
Title : Dub [Hurtom]
Language : Ukrainian
Default : Yes
Forced : No

Text #1
ID : 3
Format : UTF-8
Codec ID : S_TEXT/UTF8
Codec ID/Info : UTF-8 Plain Text
Title : [Hurtom]
Language : Ukrainian
Default : Yes
Forced : No

Text #2
ID : 4
Format : UTF-8
Codec ID : S_TEXT/UTF8
Codec ID/Info : UTF-8 Plain Text
Language : English
Default : No
Forced : No

Menu
00:00:00.000 : :Chapter 1
00:05:24.652 : :Chapter 2
00:10:35.478 : :Chapter 3
00:15:58.357 : :Chapter 4
00:20:48.125 : :Chapter 5
00:25:26.451 : :Chapter 6
00:30:35.852 : :Chapter 7
00:35:54.952 : :Chapter 8
00:40:45.587 : :Chapter 9
00:45:27.652 : :Chapter 10
00:50:52.625 : :Chapter 11
00:55:15.364 : :Chapter 12
01:00:36.852 : :Chapter 14
01:05:32.752 : :Chapter 15
01:10:48.362 : :Chapter 16
01:15:24.625 : :Chapter 17
Феї: Загублений скарб / Tinker Bell and the Lost Treasure (2009) ВDRip 1080p 2xUkr | Sub Ukr/Eng

Феї: Загублений скарб / Tinker Bell and the Lost Treasure (2009) ВDRip 1080p 2xUkr | Sub Ukr/Eng

Феї: Квадрологія + Змагання у долині фей / Tinker Bell Quadrilogy + Pixie Hollow Games (2008/2009/2010/2011/2012) 1080p | Sub Ukr/Eng


Жанр: мультфільм, фентезі, пригодницький, сімейний
Країна: США



Кіностудія / кінокомпанія: DisneyToon Studios
Режисер: Клей Голл / Klay Hall
Ролі озвучують: Люсі Ліу / Lucy Liu, Мей Уітман / Mae Whitman, Крістін Ченоует / Kristin Chenoweth, Памела Едлон / Pamela Adlon, Джессі МакКартні / Jesse McCartney, Анжеліка Х'юстон / Anjelica Huston, Равен-Саймоне / Raven-Symone, Джон ДіМаджіо / John DiMaggio, Ґрей ДеЛісл / Grey DeLisle, Роб Полсен / Rob Paulsen, Джефф Беннетт / Jeff Bennett, Джейн Горрокс / Jane Horrocks, Роджер Керйґ Сміт / Roger Craig Smith, Боб Берґен / Bob Bergen, Анджела Бартіс / Angela Bartys

Сюжет:
Продовження пригод феї майстрині Дінь-Дінь і її друзів. Необхідно омолодити Дерево Пилку Фей. Вибирають фею Дінь — найкращу з майстрів, вона повинна виготовити Скіпетр, найважливіша деталь якого — Місячний Камінь. Під час роботи над Скіпетром Місячний Камінь був розбитий. Дінь-Дінь дуже хоче виправити помилку. Вона відправляється на Північ Нетландії в пошуках Чарівного Дзеркала, яке може виконати її бажання.

Тривалість: 01:20:14
Якість: 1080p
Відео: (ріп від Gorelov (rutor)
кодек:
розмір кадру: 1920 x 1080
бітрейт: 7150 кб/с

Аудіо #1:
мова: українська
переклад: професійний дубльований
кодек: 2.0 (стерео)
бітрейт: 192 кб/с
Інформація про дубляж
Режисер дубляжу: Іван Марченко
Перекладач: Тетяна Коробкова
Музичний редактор: Світлана Заря
Звукорежисер: Дмитро Мялковський
Ролі дублювали: Міа Вайтмен/Дінь-Дінь — Марина Локтіонова, Іван Оглоблін, Тетяна Антонова, Ганна Кузіна, Катерина Качан, Іван Розін, Сергій Солопай, Наталя Романько-Кисельова, Ольга Радчук, Євген Шах, Василь Мазур, Світлана Заря та інші.

Фільм перекладено і дубльовано на студії LeDoyen на замовлення Disney character voices international, inc.
Аудіо #2:
мова: українська
переклад: двоголосий закадровий
кодек: 2.0 (стерео)
бітрейт: 192 кб/с
Інформація про дубляж

Ролі озвучили: Андрій Федінчик і Марина Локтіонова
Субтитри #1:
мова: українська
тип: програмні (м'які)
формат: *.srt

Субтитри #2:
мова: англійська
тип: програмні (м'які)
формат: *.srt

Оригінальні розділи: Збережено
Info

General
Unique ID : 181581151129636835803177413114738930333 (0x889B41F404E8E417BB3E546F890E729D)
Complete name : D:\Tinker.Bell.Quadrilogy.&.Pixie.Hollow.Games..1080p.Ukr\Tinker.Bell.and.the.Lost.Treasure.2009..1080p.2xUkr.
Format :
Format version : Version 4 / Version 2
File size : 4.22 GiB
Duration : 1h 20mn
Overall bit rate : 7 533 Kbps
Movie name : Феї: Загублений скарб / Феи: Потерянное сокровище / Tinker Bell and the Lost Treasure (2009)
Encoded date : UTC 2010-02-22 21:41:31
Writing application : mkvmerge v5.9.0 ('On The Loose') built on Dec 9 2012 15:37:01
Writing library : libebml v1.3.0 + libmatroska v1.4.0

Video
ID : 1
Format : AVC
Format/Info : Advanced Video Codec
Format profile : [email protected]
Format settings, CABAC : Yes
Format settings, ReFrames : 4 frames
Codec ID : V_MPEG4/ISO/AVC
Duration : 1h 20mn
Bit rate : 7 150 Kbps
Width : 1 920 pixels
Height : 1 080 pixels
Display aspect ratio : 16:9
Frame rate mode : Constant
Frame rate : 23.976 fps
Color space : YUV
Chroma subsampling : 4:2:0
Bit depth : 8 bits
Scan type : Progressive
Bits/(Pixel*Frame) : 0.144
Stream size : 3.92 GiB (93%)
Title : rip by Gorelov (Dimok)
Writing library : core 129 r2230 1cffe9f
Encoding settings : cabac=1 / ref=4 / deblock=1:0:0 / analyse=0x3:0x133 / me=umh / subme=10 / psy=1 / psy_rd=1.00:0.10 / mixed_ref=1 / me_range=32 / chroma_me=1 / trellis=2 / 8x8dct=1 / cqm=0 / deadzone=21,11 / fast_pskip=0 / chroma_qp_offset=-3 / threads=6 / lookahead_threads=1 / sliced_threads=0 / nr=0 / decimate=1 / interlaced=0 / bluray_compat=0 / constrained_intra=0 / bframes=3 / b_pyramid=2 / b_adapt=2 / b_bias=0 / direct=3 / weightb=1 / open_gop=0 / weightp=2 / keyint=240 / keyint_min=23 / scenecut=40 / intra_refresh=0 / rc_lookahead=66 / rc=2pass / mbtree=1 / bitrate=7150 / ratetol=1.0 / qcomp=0.62 / qpmin=0 / qpmax=69 / qpstep=4 / cplxblur=20.0 / qblur=0.5 / ip_ratio=1.40 / aq=1:1.00
Language : English
Default : Yes
Forced : No

Audio #1
ID : 2
Format : AC-3
Format/Info : Audio Coding 3
Mode extension : CM (complete main)
Format settings, Endianness : Big
Codec ID : A_AC3
Duration : 1h 20mn
Bit rate mode : Constant
Bit rate : 192 Kbps
Channel(s) : 2 channels
Channel positions : Front: L R
Sampling rate : 48.0 KHz
Bit depth : 16 bits
Compression mode : Lossy
Stream size : 110 MiB (3%)
Title : Dub LeDoyen 2.0 192 Kbps [Hurtom]
Language : Ukrainian
Default : Yes
Forced : No

Audio #2
ID : 3
Format : AC-3
Format/Info : Audio Coding 3
Mode extension : CM (complete main)
Format settings, Endianness : Big
Codec ID : A_AC3
Duration : 1h 20mn
Bit rate mode : Constant
Bit rate : 192 Kbps
Channel(s) : 2 channels
Channel positions : Front: L R
Sampling rate : 48.0 KHz
Bit depth : 16 bits
Compression mode : Lossy
Stream size : 110 MiB (3%)
Title : DVO Новий канал 2.0 192 Kbps [Hurtom] karvai0 & xslim
Language : Ukrainian
Default : No
Forced : No

Text #1
ID : 4
Format : UTF-8
Codec ID : S_TEXT/UTF8
Codec ID/Info : UTF-8 Plain Text
Title : [Hurtom].SUB.UKR
Language : Ukrainian
Default : Yes
Forced : No

Text #2
ID : 5
Format : UTF-8
Codec ID : S_TEXT/UTF8
Codec ID/Info : UTF-8 Plain Text
Language : English
Default : No
Forced : No

Menu
00:00:00.000 : :Chapter 1
00:05:20.554 : :Chapter 2
00:10:30.540 : :Chapter 3
00:15:36.351 : :Chapter 4
00:20:40.654 : :Chapter 5
00:25:57.457 : :Chapter 6
00:30:31.521 : :Chapter 7
00:35:50.963 : :Chapter 8
00:40:45.258 : :Chapter 9
00:45:24.658 : :Chapter 10
00:50:05.325 : :Chapter 11
00:55:42.265 : :Chapter 12
01:00:24.312 : :Chapter 13
01:05:12.456 : :Chapter 14
01:10:52.954 : :Chapter 15
01:15:27.522 : :Chapter 16
Феї: Фантастичний порятунок / Tinker Bell and the Great Fairy Rescue (2010) 1080p | Sub Ukr/Eng

Феї: Фантастичний порятунок / Tinker Bell and the Great Fairy Rescue (2010) 1080p | Sub Ukr/Eng

Феї: Квадрологія + Змагання у долині фей / Tinker Bell Quadrilogy + Pixie Hollow Games (2008/2009/2010/2011/2012) 1080p | Sub Ukr/Eng


Жанр: мультфільм, фентезі, пригодницький, сімейний
Країна: США



Кіностудія / кінокомпанія: DisneyToon Studios
Режисер: Бредлі Раймонд / Bradley Raymond
Ролі озвучують: Люсі Ліу / Lucy Liu, Майкл Шин / Michael Sheen, Мей Уітман / Mae Whitman, Крістін Ченоует / Kristin Chenoweth, Памела Едлон / Pamela Adlon, Джессі МакКартні / Jesse McCartney, Равен-Саймоне / Raven-Symone, Роб Полсен / Rob Paulsen, Джефф Беннетт / Jeff Bennett, Фейт Прінс / Faith Prince, Боб Берґен / Bob Bergen, Крістіан Гатчерсон / Christian Hutcherson, Анджела Бартіс / Angela Bartys, Лоурен Моте / Lauren Mote, Ванесса Bатерс / Vanessa Waters

Сюжет:
Казковий світ фей, чарівного пилу та неймовірних пригод – аж ніяк не фантазія маленької дівчинки. Як і кожна дитина, вона вірила у цей світ, а він в свою чергу пустив її до себе. Дівчинка зважилась допомогти справжнім феям, яким треба визволити подругу з полону, разом подолати труднощі, та згодом стати найкращими друзями.

Тривалість: 01:16:27
Якість: 1080p
Відео:
кодек:
розмір кадру: 1920 x 1080
бітрейт: 7549 кб/с

Аудіо:
мова: українська
переклад: професійний дубльований
кодек: 5.1
бітрейт: 640 кб/с
Інформація про дубляж
Перекладач: Тетяна Коробкова
Режисер дубляжу: Іван Марченко
Мікс-студія: Shepperton International
Creative Supervisor: Aleksandra Sadowska
Ролі дублювали: Міа Вайтмен/Дінь-Дінь — Марина Локтіонова, Лорен Мот/Ліззі — Єлизавета Зіновенко, Батько — Анатолій Пашнін, Памела Едлон/Відія — Світлана Шекера, Льюсі Ліу/Срібляночка — Анна Кузіна, Равен Сімоні/Ірідеса — Катерина Качан, Крістін Ченвет/Розета — Тетяна Львова, Енжела Бартіс/Фауна — Наталя Романько-Кисельова, Роб Полсен/Боббл — Іван Розін, Бряц — Сергій Солопай, Джессі МакКартні/Теренс — Іван Оглоблін, Кара Діллан/Оповідачка — Катерина Коновалова; а також: Надія Кондратовська, Микола Боклан, Дмитро Сова та інші.
ПІСНІ: «Літо зустрічай» , «Тільки повір» , «Літо зустрічай» (реприза) виконує — Еріка
Музичний керівник: Світлана Заря
Переклад пісень: Роман Дяченко

Фільм перекладено і дубльовано на студії LeDoyen на замовлення Disney character voices international, inc.
Субтитри #1:
мова: українська (написи)
тип: програмні (м'які)
формат: *.srt

Субтитри #2:
мова: українська (повні)
тип: програмні (м'які)
формат: *.srt

Субтитри #3:
мова: англійська
тип: програмні (м'які)
формат: *.srt

Оригінальні розділи: Збережено
Info

General
Unique ID : 225768214201963650887271353782059637062 (0xA9D9605D353774748058AA4C44DB9946)
Complete name : D:\Tinker.Bell.Quadrilogy.&.Pixie.Hollow.Games..1080p.Ukr\Tinker.Bell.and.the.Great.Fairy.Rescue.2010..1080p.
Format :
Format version : Version 4 / Version 2
File size : 4.37 GiB
Duration : 1h 16mn
Overall bit rate : 8 191 Kbps
Movie name : Феї: Фантастичний порятунок / Феи: Волшебное спасение / Tinker Bell and the Great Fairy Rescue (2010)
Encoded date : UTC 2010-02-22 21:41:31
Writing application : mkvmerge v5.9.0 ('On The Loose') built on Dec 9 2012 15:37:01
Writing library : libebml v1.3.0 + libmatroska v1.4.0

Video
ID : 1
Format : AVC
Format/Info : Advanced Video Codec
Format profile : [email protected]
Format settings, CABAC : Yes
Format settings, ReFrames : 4 frames
Codec ID : V_MPEG4/ISO/AVC
Duration : 1h 16mn
Bit rate : 7 549 Kbps
Width : 1 920 pixels
Height : 1 080 pixels
Display aspect ratio : 16:9
Frame rate mode : Constant
Frame rate : 23.976 fps
Color space : YUV
Chroma subsampling : 4:2:0
Bit depth : 8 bits
Scan type : Progressive
Bits/(Pixel*Frame) : 0.152
Stream size : 3.95 GiB (90%)
Title : Release for HDCLUB
Writing library : core 104 r1713 c276662
Encoding settings : cabac=1 / ref=4 / deblock=1:-3:-3 / analyse=0x3:0x113 / me=tesa / subme=10 / psy=1 / psy_rd=0.60:0.00 / mixed_ref=1 / me_range=16 / chroma_me=1 / trellis=2 / 8x8dct=1 / cqm=0 / deadzone=21,11 / fast_pskip=0 / chroma_qp_offset=-2 / threads=12 / sliced_threads=0 / nr=0 / decimate=0 / interlaced=0 / constrained_intra=0 / bframes=6 / b_pyramid=2 / b_adapt=2 / b_bias=0 / direct=3 / weightb=1 / open_gop=0 / weightp=2 / keyint=250 / keyint_min=23 / scenecut=40 / intra_refresh=0 / rc=2pass / mbtree=0 / bitrate=7549 / ratetol=1.0 / qcomp=0.60 / qpmin=10 / qpmax=51 / qpstep=4 / cplxblur=20.0 / qblur=0.5 / ip_ratio=1.40 / pb_ratio=1.30 / aq=1:0.90
Language : English
Default : Yes
Forced : Yes

Audio
ID : 2
Format : AC-3
Format/Info : Audio Coding 3
Mode extension : CM (complete main)
Format settings, Endianness : Big
Codec ID : A_AC3
Duration : 1h 16mn
Bit rate mode : Constant
Bit rate : 640 Kbps
Channel(s) : 6 channels
Channel positions : Front: L C R, Side: L R, LFE
Sampling rate : 48.0 KHz
Bit depth : 16 bits
Compression mode : Lossy
Stream size : 350 MiB (8%)
Title : Дубляж, Blu-ray CEE [, 5.1, 640 kbps]
Language : Ukrainian
Default : Yes
Forced : Yes

Text #1
ID : 3
Format : UTF-8
Codec ID : S_TEXT/UTF8
Codec ID/Info : UTF-8 Plain Text
Title : Українські субтитри (написи)
Language : Ukrainian
Default : No
Forced : No

Text #2
ID : 4
Format : UTF-8
Codec ID : S_TEXT/UTF8
Codec ID/Info : UTF-8 Plain Text
Title : Українські субтитри
Language : Ukrainian
Default : No
Forced : No

Text #3
ID : 5
Format : UTF-8
Codec ID : S_TEXT/UTF8
Codec ID/Info : UTF-8 Plain Text
Title : English subtitles
Language : English
Default : No
Forced : No

Menu
00:00:00.000 : :1. Main Titles
00:05:40.549 : :2. The Human House
00:11:25.226 : :3. Fairies Welcome
00:16:54.889 : :4. Captivity
00:22:36.981 : :5. I Just Want to Be Your Friend
00:27:39.533 : :6. Rescue Party
00:35:22.829 : :7. Heading Home
00:42:18.202 : :8. Fixing the Leaks
00:48:14.266 : :9. Learning to Fly
00:56:11.159 : :10. Fairies Are Real
00:59:58.929 : :11. Saving Vidia
01:09:48.393 : :12. End Credits


Джерело:
Феї: Змагання у долині фей / Pixie Hollow Games (2011) 1080p Ukr/Eng | Sub Ukr/Eng

Феї: Змагання у долині фей / Pixie Hollow Games (2011) 1080p Ukr/Eng | Sub Ukr/Eng

Феї: Квадрологія + Змагання у долині фей / Tinker Bell Quadrilogy + Pixie Hollow Games (2008/2009/2010/2011/2012) 1080p | Sub Ukr/Eng


Жанр: мультфільм, короткометражний, фентезі, пригодницький, сімейний
Країна: США



Кіностудія / кінокомпанія: DisneyToon Studios
Режисер: Бредлі Раймонд / Bradley Raymond
Ролі озвучують: Люсі Ліу / Lucy Liu, Мей Уітман / Mae Whitman, Крістін Ченоует / Kristin Chenoweth, Памела Едлон / Pamela Adlon, Анжеліка Г'юстон / Anjelica Huston, Равен-Саймоне / Raven-Symone, Бренда Сонґ / Brenda Song, Зендея / Zendaya, Джейсон Доллей / Jason Dolley, Роб Полсен / Rob Paulsen, Джефф Беннетт / Jeff Bennett, Карі Ваглґрен / Kari Wahlgren, Даніель Кертіс Лі / Daniel Curtis Lee, Джейн Горрокс / Jane Horrocks, Меґан Гілті / Megan Hilty, Тіффані Торнтон / Tiffany Thornton

Сюжет:
Дінь-Дінь разом зі своїми друзями збираються з усіх куточків Нетландії для того, щоб взяти участь в грандіозному Турнірі Долини Фей - Олімпійських іграх, які поєднують в собі різні цікаві спортивні змагання та веселі сюрпризи.

Тривалість: 00:22:34
Якість: 1080p
Відео: (ріп від Gorelov (rutor)
кодек:
розмір кадру: 1920 x 1080
бітрейт: 7133 кб/с

Аудіо #1:
мова: українська
переклад: професійний дубльований
кодек: 2.0 (стерео)
бітрейт: 192 кб/с

Аудіо #2:
мова: англійська
переклад: оригінал
кодек: 5.1
бітрейт: 384 кб/с

Субтитри:
мова: англійська
тип: програмні (м'які)
формат: *.srt

Оригінальні розділи: Збережено
Info

General
Unique ID : 196100908065068076265808658004299692218 (0x9387A93D9D2BF9F3AFBDD67AAD1338BA)
Complete name : D:\Tinker.Bell.Quadrilogy.&.Pixie.Hollow.Games..1080p.Ukr\Pixie.Hollow.Games.2011..1080p.Ukr.Eng.
Format :
Format version : Version 4 / Version 2
File size : 1.22 GiB
Duration : 22mn 34s
Overall bit rate : 7 712 Kbps
Movie name : Феї: Змагання у долині фей / Турнир Долины Фей / Pixie Hollow Games (2011)
Encoded date : UTC 2010-02-22 21:41:31
Writing application : mkvmerge v5.9.0 ('On The Loose') built on Dec 9 2012 15:37:01
Writing library : libebml v1.3.0 + libmatroska v1.4.0

Video
ID : 1
Format : AVC
Format/Info : Advanced Video Codec
Format profile : [email protected]
Format settings, CABAC : Yes
Format settings, ReFrames : 4 frames
Codec ID : V_MPEG4/ISO/AVC
Duration : 22mn 34s
Bit rate : 7 133 Kbps
Width : 1 920 pixels
Height : 1 080 pixels
Display aspect ratio : 16:9
Frame rate mode : Constant
Frame rate : 23.976 fps
Color space : YUV
Chroma subsampling : 4:2:0
Bit depth : 8 bits
Scan type : Progressive
Bits/(Pixel*Frame) : 0.143
Stream size : 1.10 GiB (91%)
Title : rip by Gorelov (Dimok)
Writing library : core 129 r2230 1cffe9f
Encoding settings : cabac=1 / ref=4 / deblock=1:0:0 / analyse=0x3:0x133 / me=umh / subme=10 / psy=1 / psy_rd=1.00:0.10 / mixed_ref=1 / me_range=32 / chroma_me=1 / trellis=2 / 8x8dct=1 / cqm=0 / deadzone=21,11 / fast_pskip=0 / chroma_qp_offset=-3 / threads=6 / lookahead_threads=1 / sliced_threads=0 / nr=0 / decimate=1 / interlaced=0 / bluray_compat=0 / constrained_intra=0 / bframes=3 / b_pyramid=2 / b_adapt=2 / b_bias=0 / direct=3 / weightb=1 / open_gop=0 / weightp=2 / keyint=240 / keyint_min=23 / scenecut=40 / intra_refresh=0 / rc_lookahead=69 / rc=2pass / mbtree=1 / bitrate=7133 / ratetol=1.0 / qcomp=0.62 / qpmin=0 / qpmax=69 / qpstep=4 / cplxblur=20.0 / qblur=0.5 / ip_ratio=1.40 / aq=1:1.00
Language : English
Default : Yes
Forced : No

Audio #1
ID : 2
Format : AC-3
Format/Info : Audio Coding 3
Mode extension : CM (complete main)
Format settings, Endianness : Big
Codec ID : A_AC3
Duration : 22mn 34s
Bit rate mode : Constant
Bit rate : 192 Kbps
Channel(s) : 2 channels
Channel positions : Front: L R
Sampling rate : 48.0 KHz
Bit depth : 16 bits
Compression mode : Lossy
Stream size : 31.0 MiB (2%)
Title : Dub 2.0 192 kbps [Hurtom]
Language : Ukrainian
Default : Yes
Forced : No

Audio #2
ID : 3
Format : AC-3
Format/Info : Audio Coding 3
Mode extension : CM (complete main)
Format settings, Endianness : Big
Codec ID : A_AC3
Duration : 22mn 34s
Bit rate mode : Constant
Bit rate : 384 Kbps
Channel(s) : 6 channels
Channel positions : Front: L C R, Side: L R, LFE
Sampling rate : 48.0 KHz
Bit depth : 16 bits
Compression mode : Lossy
Stream size : 62.0 MiB (5%)
Title : Original
Language : English
Default : No
Forced : No

Text
ID : 4
Format : UTF-8
Codec ID : S_TEXT/UTF8
Codec ID/Info : UTF-8 Plain Text
Title : SRT, Full
Language : English
Default : No
Forced : No

Menu
00:00:00.000 : en:Chapter 1
00:04:21.344 : en:Chapter 2
00:10:43.852 : en:Chapter 3
00:15:43.192 : en:Chapter 4
00:21:59.443 : en:Chapter 5
Феї: Таємниця магічних крил / Secret of the Wings (2012) 1080p Ukr/Eng | Sub Ukr/Eng

Феї: Таємниця магічних крил / Secret of the Wings (2012) 1080p Ukr/Eng | Sub Ukr/Eng

Феї: Квадрологія + Змагання у долині фей / Tinker Bell Quadrilogy + Pixie Hollow Games (2008/2009/2010/2011/2012) 1080p | Sub Ukr/Eng


Жанр: мультфільм, фентезі, сімейний
Країна: США



Кіностудія / кінокомпанія: Walt Disney Pictures, DisneyToon Studios
Режисер: Роберс Ґанноей / Roberts Gannaway, Пеґґі Голмс / Peggy Holmes
Ролі озвучують: Тімоті Дальтон / Timothy Dalton, Люсі Гейл / Lucy Hale, Меґан Гілті / Megan Hilty, Анжеліка Г'юстон / Anjelica Huston, Метт Лантер / Matt Lanter, Джессі МакКартні / Jesse McCartney, Мей Уітман / Mae Whitman, Люсі Ліу / Lucy Liu, Равен-Саймоне / Raven-Symone, Деббі Раян / Debby Ryan, Памела Едлон / Pamela Adlon, Ді Бредлі Бейкер / Dee Bradley Baker, Анджела Бартіс / Angela Bartys, Джефф Беннетт / Jeff Bennett, Джоді Бенсон / Jodi Benson

Сюжет:
Пригоди Дінь-дінь – це захоплюючі історії, які наповнені магією, добром і загадками. Цього разу вона опиниться у зимовій країні, де живуть схожі на неї феї. Попереду багато незвіданого, про що цікаво буде дізнатися і дітям, і дорослим.

Тривалість: 01:15:03
Якість: 1080p
Відео: (ріп від delia (FREEISLAND)
кодек:
розмір кадру: 1920 x 1080
бітрейт: 7542 кб/с

Аудіо #1:
мова: українська
переклад: професійний дубльований
кодек: 5.1
бітрейт: 384 кб/с

Аудіо #2:
мова: англійська
переклад: оригінал
кодек: 5.1
бітрейт: 384 кб/с

Субтитри #1:
мова: українська
тип: програмні (м'які)
формат: *.srt

Субтитри #2:
мова: англійська
тип: програмні (м'які)
формат: *.srt

Оригінальні розділи: Збережено
Info

General
Unique ID : 199727955559036450179282804874007215896 (0x9642347D1FB7A8EC89027D14341EFF18)
Complete name : D:\Tinker.Bell.Quadrilogy.&.Pixie.Hollow.Games..1080p.Ukr\Tinker.Bell.Secret.of.the.Wings.2012..1080p.Ukr.Eng.
Format :
Format version : Version 4 / Version 2
File size : 4.36 GiB
Duration : 1h 15mn
Overall bit rate : 8 314 Kbps
Movie name : Феї 4: Таємниця магічних крил / Феи: Тайна зимнего леса / Secret of the Wings (2012) Tinker Bell
Encoded date : UTC 2010-02-22 21:41:31
Writing application : mkvmerge v5.9.0 ('On The Loose') built on Dec 9 2012 15:37:01
Writing library : libebml v1.3.0 + libmatroska v1.4.0

Video
ID : 1
Format : AVC
Format/Info : Advanced Video Codec
Format profile : [email protected]
Format settings, CABAC : Yes
Format settings, ReFrames : 4 frames
Codec ID : V_MPEG4/ISO/AVC
Duration : 1h 15mn
Bit rate : 7 542 Kbps
Width : 1 920 pixels
Height : 1 080 pixels
Display aspect ratio : 16:9
Frame rate mode : Constant
Frame rate : 23.976 fps
Color space : YUV
Chroma subsampling : 4:2:0
Bit depth : 8 bits
Scan type : Progressive
Bits/(Pixel*Frame) : 0.152
Stream size : 3.87 GiB (89%)
Title : rip by delia [FREEISLAND]
Writing library : core 128 r2216 198a7ea
Encoding settings : cabac=1 / ref=4 / deblock=1:0:0 / analyse=0x3:0x113 / me=umh / subme=10 / psy=1 / psy_rd=0.85:0.00 / mixed_ref=1 / me_range=32 / chroma_me=1 / trellis=2 / 8x8dct=1 / cqm=0 / deadzone=21,11 / fast_pskip=0 / chroma_qp_offset=2 / threads=6 / lookahead_threads=1 / sliced_threads=0 / nr=0 / decimate=1 / interlaced=0 / bluray_compat=0 / constrained_intra=0 / bframes=8 / b_pyramid=2 / b_adapt=2 / b_bias=0 / direct=3 / weightb=1 / open_gop=0 / weightp=2 / keyint=240 / keyint_min=23 / scenecut=40 / intra_refresh=0 / rc=2pass / mbtree=0 / bitrate=7542 / ratetol=1.0 / qcomp=0.60 / qpmin=10 / qpmax=51 / qpstep=4 / cplxblur=20.0 / qblur=0.5 / ip_ratio=1.40 / pb_ratio=1.30 / aq=1:0.60
Language : English
Default : Yes
Forced : No
Color primaries : BT.709
Transfer characteristics : BT.709
Matrix coefficients : BT.709

Audio #1
ID : 2
Format : AC-3
Format/Info : Audio Coding 3
Mode extension : CM (complete main)
Format settings, Endianness : Big
Codec ID : A_AC3
Duration : 1h 15mn
Bit rate mode : Constant
Bit rate : 384 Kbps
Channel(s) : 6 channels
Channel positions : Front: L C R, Side: L R, LFE
Sampling rate : 48.0 KHz
Bit depth : 16 bits
Compression mode : Lossy
Stream size : 206 MiB (5%)
Title : Dub
Language : Ukrainian
Default : Yes
Forced : No

Audio #2
ID : 3
Format : AC-3
Format/Info : Audio Coding 3
Mode extension : CM (complete main)
Format settings, Endianness : Big
Codec ID : A_AC3
Duration : 1h 15mn
Bit rate mode : Constant
Bit rate : 384 Kbps
Channel(s) : 6 channels
Channel positions : Front: L C R, Side: L R, LFE
Sampling rate : 48.0 KHz
Bit depth : 16 bits
Compression mode : Lossy
Stream size : 206 MiB (5%)
Title : original
Language : English
Default : No
Forced : No

Text #1
ID : 4
Format : UTF-8
Codec ID : S_TEXT/UTF8
Codec ID/Info : UTF-8 Plain Text
Title : [Hurtom]
Language : Ukrainian
Default : Yes
Forced : No

Text #2
ID : 5
Format : UTF-8
Codec ID : S_TEXT/UTF8
Codec ID/Info : UTF-8 Plain Text
Language : English
Default : No
Forced : No

Menu
00:00:00.000 : en:Chapter 01
00:05:53.019 : en:Chapter 02
00:09:04.627 : en:Chapter 03
00:14:10.516 : en:Chapter 04
00:20:32.481 : en:Chapter 05
00:28:17.404 : en:Chapter 06
00:34:46.209 : en:Chapter 07
00:40:26.465 : en:Chapter 08
00:48:07.134 : en:Chapter 09
00:53:50.685 : en:Chapter 10
01:00:37.175 : en:Chapter 11
01:07:47.563 : en:Chapter 12
01:15:03.665 : en:Chapter 13




Феї: Таємниця піратського острова / The Pirate Fairy (2014) 1080p Ukr/Eng | Sub Eng
Феї і Легенда загадкового звіра / Tinker Bell: Legend of the NeverBeast (2014) 1080p Ukr/Eng | Sub Eng

Подяки:
karvai0 - за українські звукові доріжки до "Феї", "Феї: Загублений скарб", українську та оригінальну доріжку до "Феї: Змагання у долині фей", а також за оформлення та субтитри;
Vasua95 - за українську та оригінальну доріжку до "Феї: Таємниця магічних крил",
xslim за сирий звук до Феї: Загублений скарб і Феї: Змагання у долині фей;
thefir за українізацію загального постера, постера Феї: Загублений скарб і Феї: Змагання у долині фей.

Особиста оцінка: 10 - без зайвих вагань рекомендую всім дітям та їх батькам!


Бронзовий реліз (на рейтинг впливає 75% завантаженого)
 Трекер:    Зареєстрований   

Завантажити / скачати мультфільм українською



відео для новачків



 Зареєстрований:   2013-01-06 11:24
 Розмір:   18.4 GB 
 Оцінка мультфільму:   8.5/10 (Голосів: 63)
   
Anonymous 







2013-01-05 20:41  
У цьому релізі чудова якість відео, а також кожен мульт влазить на звичайнісіньку болванку DVD-5 4.37 Гб.
vitaliyvd1 
Частий відвідувач


З нами з: 17.02.10
Востаннє: 31.07.17
Повідомлень: 34

2013-01-06 03:20  
доземний уклін за збірку!
ratbol 
Модератор HD


З нами з: 03.02.09
Востаннє: 19.08.17
Повідомлень: 1083

2013-01-08 20:29  
Скріншоти мають бути в форматі png.
Чому немає оригінальної доріжки до 3-ої частини?

Anonymous 







2013-01-08 20:33  
1.Скріни замінив.
2.Доріжки нема, бо реліз робився під розмір 4,37 Гб/файл без погіршення якості відео.

SHEVA1991 
Поважний учасник


З нами з: 29.11.12
Востаннє: 11.02.17
Повідомлень: 201

2013-01-10 11:16  
Дякую за реліз та за якість!! Мені сподобалась кожна частина!!!!
shefas 
Новенький


З нами з: 24.10.12
Востаннє: 05.08.17
Повідомлень: 2

2013-01-30 18:55  
дякую
Leben 
VIP


З нами з: 20.07.09
Востаннє: 18.08.17
Повідомлень: 333

2013-06-26 03:12  
Малі підсіли. Дуже предуже дякую. :)
bodia87 
Відео Гуртом - фільмокрай
Відео Гуртом - фільмокрай


З нами з: 24.01.09
Востаннє: 19.08.17
Повідомлень: 472

2013-07-01 13:54  
Leben написано:
Малі підсіли


Не те слово Happy

hotsuls 
Новенький


З нами з: 05.10.12
Востаннє: 06.07.17
Повідомлень: 3

2013-07-30 22:24  
Доброго дня! Завантажила збірку мультфільмів про фей.Але чомусь в мене основним звуком є оригінал,а дубляж чути дуже погано.І так ще декілька інших мультфільмів.Пробувала перезавантажити другий раз,але нічого не змінилось.Допоможіть,будь ласка.
ratbol 
Модератор HD


З нами з: 03.02.09
Востаннє: 19.08.17
Повідомлень: 1083

2013-07-30 22:37  
hotsuls
На чому дивитесь, на компютері чи медіаплеєрі? Можливо десь у налаштуваннях увімкнена англ мова за замовчуванням.
igor911
Я щось не розумію, куди поділись оригінальні доріжки до 1-ої та 2-ої частин?

Anonymous 







2013-07-30 22:53  
ratbol написано:
Я щось не розумію, куди поділись оригінальні доріжки до 1-ої та 2-ої частин?

Мабуть, їх там не було... Muted У всякому разі я реліз не змінював.

Додано через 9 хвилин:

Правило щодо обов"язковості оригінальних доріжок ввели в лютому, якщо я не помиляюсь...

ratbol 
Модератор HD


З нами з: 03.02.09
Востаннє: 19.08.17
Повідомлень: 1083

2013-07-30 22:55  
igor911
Схоже, що справді не було. Перепрошую.

hotsuls 
Новенький


З нами з: 05.10.12
Востаннє: 06.07.17
Повідомлень: 3

2013-07-31 14:36  
Я дивлюсь на компютері.
Anonymous 







2013-07-31 15:16  
hotsuls написано:
Я дивлюсь на компютері.

Якщо ви дивитесь через Windows Media Player - то він не вміє перемикати звукові доріжки і грає всі одночасно. Відкривайте відео через інші плеєри (media player classic / kmplayer / potplayer і т.п.)

hotsuls 
Новенький


З нами з: 05.10.12
Востаннє: 06.07.17
Повідомлень: 3

2013-07-31 16:22  
Дякую за допомогу.Встановила на компютер інший плеєр і тепер все добре.
BMK12 
Відео Гуртом - підтримка та поширення
Відео Гуртом - підтримка та поширення


З нами з: 13.04.09
Востаннє: 19.08.17
Повідомлень: 3110

2014-01-03 00:42  
А така колекція в 720р не планується?
Anonymous 







2014-01-03 09:27  
BMK12, від мене - ні.
slovo17 
Поважний учасник


З нами з: 23.10.11
Востаннє: 18.08.17
Повідомлень: 174

2014-05-10 19:08  
Чудова збірка!
А знає хто-небудь, чи будуть в Україні показувати оцю частину?

Anonymous 







2014-05-10 19:16  
slovo17, З 20го березня мав бути в кіно, з 20 травня - реліз на блу-рей. Дісней зазвичай не жметься на українську доріжку.
slovo17 
Поважний учасник


З нами з: 23.10.11
Востаннє: 18.08.17
Повідомлень: 174

2014-05-10 19:27  
igor911
Дякую за відповідь.
Вочевидь, я пропустила показ.

Anonymous 







2014-05-10 19:32  
Я чекав, але в моєму місті не було Sad (1)
slovo17 
Поважний учасник


З нами з: 23.10.11
Востаннє: 18.08.17
Повідомлень: 174

2014-05-10 19:41  
Отже, є надія, що ще покажуть Happy
BMK12 
Відео Гуртом - підтримка та поширення
Відео Гуртом - підтримка та поширення


З нами з: 13.04.09
Востаннє: 19.08.17
Повідомлень: 3110

2014-05-22 00:45  
Я колись обіцяв субтитри зробити до Pixie Hollow Games (2011). Так от, перепрошую за таку затримку, але вже так вийшло. Сподіваюсь вони ще комусь знадобляться. Завантажити (як залити до доріжок на сервері не знаю).
Повні субтитри виконані за дубляжем, синхронізовані з відео із цього релізу (в англ. версії була певна невідповідність у фразах).

Anonymous 







2014-05-22 12:53  
BMK12 написано:
Я колись обіцяв субтитри зробити до Pixie Hollow Games

Дякую, залив на сервер доріжок. Якщо оновлятиму цей реліз, обов"язково додам.

DDBj 
VIP


З нами з: 09.01.12
Востаннє: 18.08.17
Повідомлень: 542

2014-07-18 21:56  
На Мегого є "Загадка Піратського острова" українською.
Віктор 
Відео Гуртом - субтитрування
Відео Гуртом - субтитрування


З нами з: 09.01.10
Востаннє: 11.08.17
Повідомлень: 8686

2014-07-19 00:23  
DDBj написано:
На Мегого є "Загадка Піратського острова" українською.

У пісошниці вже 3 анонси)

Anonymous 







2014-07-20 16:37  
BMK12 
Відео Гуртом - підтримка та поширення
Відео Гуртом - підтримка та поширення


З нами з: 13.04.09
Востаннє: 19.08.17
Повідомлень: 3110

2015-05-16 17:59  
Буде FullHD версія з усіма 6-ма фільмами?
Anonymous 







2015-05-18 11:29  
BMK12, цей реліз задумувався для зручності зберігання на DVD-5 дисках (кожен мульт не більше 4,37 Гб). При теперішніх Правилах треба додавати оригінальну доріжку до перших трьох частин. Я поки не планую оновлювати цей реліз. Просто додаватиму лінки на наступні частини у FullHD на Толоці, як зараз.

Додано через 4 хвилини 39 секунд:

Можливо, як буде натхнення, зроблю в майбутньому.

Ваш часовий пояс: GMT + 2 Години

Нова тема   Відповісти Сторінка:  1, 2  наступна