Якось у казці (Сезон 1) / Once Upon A Time (Season 1) (2011) 720p Ukr/Eng | Sub Eng

Нові коментарі

Нова тема   Відповісти
Автор Повідомлення
ratbol 
Модератор HD


З нами з: 03.02.09
Востаннє: 22.08.19
Повідомлень: 1076

2013-01-01 15:57  
Якось у казці (Сезон 1) / Once Upon A Time (Season 1) (2011) 720p Ukr/Eng | Sub Eng

Якось у казці (Сезон 1) / Once Upon A Time (Season 1) (2011) 720p Ukr/Eng | Sub Eng


Жанр: пригодницький, драма, фентезі, містика, романтичний
Країна: США



Кіностудія / кінокомпанія: Kitsis/Horowitz, ABC Studios
Режисер: Дін Вайт, Девід Соломон, Мілан Чейлов, Ральф Гемекер, Пол А. Едвардс, Девід Баррет, Рон Андервуд
Актори: Дженніфер Ґудвін, Дженніфер Моррісон, Лана Паррілла, Джошуа Даллас, Джаред Ґілмор, Роберт Карлайл, Меґан Орі та інші

Сюжет:
У день свого народження Емма Свон несподівано зустрічає на порозі десятирічного хлопчика Генрі. Генрі стверджує, що він — її син, від якого вона відмовилася багато років тому, а сама Емма — дочка Білосніжки та Прекрасного Принца, яку колись вислали з казки, щоб врятувати від прокляття Злої Королеви. Звичайно, Емма не повірила жодному слову, але коли вона відвозить хлопчика до його названої матері в містечко Сторібрук, щось підказує їй, що казковий світ — це зовсім не плід фантазії Генрі, і вона вирішує залишитися...
Герої серіалу живуть у двох світах: казковому та реальному. Білосніжка працює вчителем, Прекрасний Принц уже довго знаходиться в комі, а Зла Королева — мер невеличкого містечка Сторібрук. Колись ці світи зустрінуться. Та чи зможе 28-річна блондинка-мисливиця за злочинцями врятувати казкових героїв?


Тривалість: 1 серія: ~45 хв (цілком серій: 22)
Перелік серій
01. Пілотна / Pilot
02. Те, що ти найбільше полюбляєш / The Thing You Love Most
03. Падає сніг / Snow Falls
04. Ціна золота / The Price of Gold
05. Цей тихий голос / That Still Small Voice
06. Пастух / The Shepherd
07. Серце - самотій мисливець / The Heart is a Lonely Hunter
08. Зневірені душі / Desperate Souls
09. Справжня північ / True North
10. 7:15 ранку / 7:15 A.M
11. Плід ядовитого дерева / Fruit of the Poisonous Tree
12. Оманлива зовішість / Skin Deep
13. Що трапилося з Фредеріком / What Happened to Frederick
14. Замріяний / Dreamy
15. Закривавлені руки / Red-Handed
16. Серце пітьми / Heart of Darkness
17. Фокус з капелюхом / Hat Trick
18. Непохитний / The Stable Boy
19. Повернення / The Return
20. Незнайомець / The Stranger
21. Червоне наче кров / An Apple Red as Blood
22. Земля без чарів / A Land Without Magic
Якість: 720p
Відео:
кодек:
розмір кадру: 1280 х 720
бітрейт: ~5.6 Мб/с

Аудіо # 1:
мова: українська
переклад: професійний дубльований | запис з телеканалу ТЕТ
кодек: 2.0
бітрейт: 384 кб/с Аудіо # 2:
мова: англійська
переклад: оригінал
кодек: 5.1
бітрейт: 1536 кб/с

Аудіо # 3: (тільки у першій серії)
мова: англійська
переклад: коментарі
кодек: 2.0
бітрейт: 320 кб/с

Субтитри:
мова: англійська
тип: програмні (м'які)
формат: *.srt

Оригінальні розділи:
Збережено

Info
Код:
General
Unique ID                                : 213798804625596895889129077415525743893 (0xA0D826E8D57A53B7889A12F99493FD15)
Complete name                            : F:\Once Upon a Time [Hurtom]\Once Upon a Time (Season 1) (2011-2012) 720p [Hurtom]\S01E01 - Pilot (2011) [Ukr, Eng, Com. Sub Eng] 720p [Hurtom].
Format                                   :
Format version                           : Version 4 / Version 2
File size                                : 2.39 GiB
Duration                                 : 43mn 35s
Overall bit rate                         : 7 852 Kbps
Movie name                               : Якось у казці / Once Upon A Time [Hurtom]
Encoded date                             : UTC 2010-02-22 21:41:31
Writing application                      : v5.9.0 ('On The Loose') built on Dec  9 2012 15:37:01
Writing library                          : libebml v1.3.0 + v1.4.0

Video
ID                                       : 1
Format                                   : AVC
Format/Info                              : Advanced Video Codec
Format profile                           : [email protected]
Format settings, CABAC                   : Yes
Format settings, ReFrames                : 5 frames
Codec ID                                 : V_MPEG4/ISO/AVC
Duration                                 : 43mn 35s
Bit rate                                 : 5 639 Kbps
Width                                    : 1 280 pixels
Height                                   : 720 pixels
Display aspect ratio                     : 16:9
Frame rate mode                          : Constant
Frame rate                               : 23.976 fps
Color space                              : YUV
Chroma subsampling                       : 4:2:0
Bit depth                                : 8 bits
Scan type                                : Progressive
Bits/(Pixel*Frame)                       : 0.255
Stream size                              : 1.67 GiB (70%)
Writing library                          : core 125 r2208 d9d2288
Encoding settings                        : cabac=1 / ref=5 / deblock=1:-1:-1 / analyse=0x3:0x113 / me=umh / subme=7 / psy=1 / psy_rd=1.00:0.00 / mixed_ref=1 / me_range=16 / chroma_me=1 / trellis=1 / 8x8dct=1 / cqm=0 / deadzone=21,11 / fast_pskip=1 / chroma_qp_offset=-2 / threads=12 / lookahead_threads=2 / sliced_threads=0 / nr=0 / decimate=1 / interlaced=0 / bluray_compat=0 / constrained_intra=0 / bframes=3 / b_pyramid=2 / b_adapt=2 / b_bias=0 / direct=3 / weightb=1 / open_gop=0 / weightp=2 / keyint=250 / keyint_min=23 / scenecut=40 / intra_refresh=0 / rc_lookahead=40 / rc=2pass / mbtree=1 / bitrate=5639 / ratetol=1.0 / qcomp=0.60 / qpmin=0 / qpmax=69 / qpstep=4 / cplxblur=20.0 / qblur=0.5 / vbv_maxrate=50000 / vbv_bufsize=50000 / nal_hrd=none / ip_ratio=1.40 / aq=1:1.00
Language                                 : English
Default                                  : Yes
Forced                                   : No

Audio #1
ID                                       : 2
Format                                   : AC-3
Format/Info                              : Audio Coding 3
Mode extension                           : CM (complete main)
Format settings, Endianness              : Big
Codec ID                                 : A_AC3
Duration                                 : 43mn 35s
Bit rate mode                            : Constant
Bit rate                                 : 384 Kbps
Channel(s)                               : 2 channels
Channel positions                        : Front: L R
Sampling rate                            : 48.0 KHz
Bit depth                                : 16 bits
Compression mode                         : Lossy
Stream size                              : 120 MiB (5%)
Title                                    : 2.0 [384 Kbps] — професійний дубльований | запис з телеканалу ТЕТ
Language                                 : Ukrainian
Default                                  : Yes
Forced                                   : No

Audio #2
ID                                       : 3
Format                                   :
Format/Info                              : Digital Theater Systems
Mode                                     : 16
Format settings, Endianness              : Big
Codec ID                                 : A_DTS
Duration                                 : 43mn 35s
Bit rate mode                            : Constant
Bit rate                                 : 1 509 Kbps
Channel(s)                               : 6 channels
Channel positions                        : Front: L C R, Side: L R, LFE
Sampling rate                            : 48.0 KHz
Bit depth                                : 24 bits
Compression mode                         : Lossy
Stream size                              : 471 MiB (19%)
Title                                    : 5.1 [1536 Kbps] — оригінал
Language                                 : English
Default                                  : No
Forced                                   : No

Audio #3
ID                                       : 4
Format                                   : AC-3
Format/Info                              : Audio Coding 3
Mode extension                           : CM (complete main)
Format settings, Endianness              : Big
Codec ID                                 : A_AC3
Duration                                 : 43mn 35s
Bit rate mode                            : Constant
Bit rate                                 : 320 Kbps
Channel(s)                               : 2 channels
Channel positions                        : Front: L R
Sampling rate                            : 48.0 KHz
Bit depth                                : 16 bits
Compression mode                         : Lossy
Stream size                              : 99.8 MiB (4%)
Title                                    : 2.0 [320 Kbps] — коментарі
Language                                 : English
Default                                  : No
Forced                                   : No

Text
ID                                       : 5
Format                                   : UTF-8
Codec ID                                 : S_TEXT/UTF8
Codec ID/Info                            : UTF-8 Plain Text
Language                                 : English
Default                                  : No
Forced                                   : No

Menu
00:00:00.000                             : en:00:00:00.000
00:08:24.129                             : en:00:08:24.129
00:15:40.523                             : en:00:15:40.523
00:24:55.869                             : en:00:24:55.869
00:33:28.173                             : en:00:33:28.173
00:42:55.698                             : en:00:42:55.698
Скріншоти




Цитата:
• За запис сирців з ТБ подяка xSlim.
• За синхронізацію українських доріжок подяка _oles.
• За допомогу у створенні релізу подяка Віктору.
• За українізацію постера подяка Gelios .
• Створення HD версії релізу — ratbol
.



Джерело:



Срібний реліз (на рейтинг впливає 50% завантаженого)
 Трекер:    Зареєстрований   

Завантажити / скачати серіал українською



відео для новачків



 Зареєстрований:   2013-01-26 16:32
 Розмір:   50.62 GB 
 Оцінка серіалу:   9.6/10 (Голосів: 27)
 ЗАЛИШАЙТЕСЯ НА РОЗДАЧІ ЯКОМОГА ДОВШЕ!
   
bot 
робот


З нами з: 30.09.07
Востаннє: 26.05.05
Повідомлень: 21799

2013-01-01 16:37  
Тему перенесено з Анонси релізів від Відео Гуртом до форуму Серіали в HD


ratbol

don pedro 
Попереджень: 1
Попереджень: 1 


З нами з: 29.06.11
Востаннє: 24.08.19
Повідомлень: 14240

2013-01-01 21:50  
Шикарна шмкарність.
ratbol 
Модератор HD


З нами з: 03.02.09
Востаннє: 22.08.19
Повідомлень: 1076

2013-01-05 22:19  
Роздача переходить в 720р.
Додано нові серії.

Оповідач 
Поважний учасник


З нами з: 13.03.11
Востаннє: 21.08.19
Повідомлень: 206

2013-01-05 23:38  
Отакої!!!А навіщо? Я вже був скачав перші п`ять серій!Мене той розмір влаштовував...
ratbol 
Модератор HD


З нами з: 03.02.09
Востаннє: 22.08.19
Повідомлень: 1076

2013-01-06 01:41  
З ріпами 1080 туго, не могли знайти, вирішили перейти на 720. А ще при появі окремо 720, 1080 вантажитимуть одиниці.
Оповідач 
Поважний учасник


З нами з: 13.03.11
Востаннє: 21.08.19
Повідомлень: 206

2013-01-06 05:02  
Напевне ти правий,та я всеж постоявши на роздачі з місяць,собі в кінотеку заміню ці серії на ті по п`ять ГБ.В мене місця багато я якісних роздач не боюсь.
P.S.Ну окрім випадків коли один фільм 50 ГБ!Тут до купи місця треба ще нове залізо...

GoDLiKeR13 
Новенький


З нами з: 03.09.12
Востаннє: 17.05.13
Повідомлень: 2

2013-01-06 12:35  
чудовий серіал, рекомендую!
Llanelly 
Новенький


З нами з: 27.02.11
Востаннє: 27.07.19
Повідомлень: 5

2013-01-10 02:29  
Затягло - не відірватися!
Gelios 
VIP


З нами з: 03.09.11
Востаннє: 04.06.19
Повідомлень: 2076

2013-01-11 20:32  
Якось у казці / Once Upon A Time (2011)
Код:
[center][img]http://posters.hurtom.com/albums/series/yakos-u-kazts-.jpg[/img][/center]


ratbol 
Модератор HD


З нами з: 03.02.09
Востаннє: 22.08.19
Повідомлень: 1076

2013-01-11 22:49  
Gelios
Дякую.

ratbol 
Модератор HD


З нами з: 03.02.09
Востаннє: 22.08.19
Повідомлень: 1076

2013-01-16 15:51  
Додано епізоди 9-12.
ratbol 
Модератор HD


З нами з: 03.02.09
Востаннє: 22.08.19
Повідомлень: 1076

2013-01-18 20:23  
Додано епізоди 13-17.
Для успішного перехешування попередніх епізодів, перейменуйте епізоди 9-12 відповідно до їх назв у новому торенті.

ratbol 
Модератор HD


З нами з: 03.02.09
Востаннє: 22.08.19
Повідомлень: 1076

2013-01-26 16:33  
Додано фінальні серії першого сезону.
dadabar 
Відео Гуртом - запис з ТБ
Відео Гуртом - запис з ТБ


З нами з: 07.12.08
Востаннє: 12.03.19
Повідомлень: 85

2013-01-27 08:32  
як завжди - роздавати нiкому Sad (1)
Hogosha 
Новенький


З нами з: 20.03.13
Востаннє: 14.08.19
Повідомлень: 10

2013-08-21 21:24  
Питання таке - тут на http://dorizhky.hurtom.com/ є доріжки для цього сезону. Але не всі. А хочеться всі. Як так викладено було? Чи хоча б кому таке питання оголосити?
Lesnichiy2004 
Свій


З нами з: 05.02.12
Востаннє: 25.06.19
Повідомлень: 70

2013-10-12 13:36  
Є офіційний трейлер третього сезону Happy
http://youtu.be/KaDb4_1zqsQ

don pedro 
Попереджень: 1
Попереджень: 1 


З нами з: 29.06.11
Востаннє: 24.08.19
Повідомлень: 14240

2013-10-13 23:29  
Lesnichiy2004
Вже є дві серії, а не тільки якийсь там трейлео.

Lesnichiy2004 
Свій


З нами з: 05.02.12
Востаннє: 25.06.19
Повідомлень: 70

2013-10-30 11:44  
Другий сезон був в Україні озвучений українською? Чи взагалі не було? (рос. озвучку я знайшов давно).
AlfieAllen 
Частий відвідувач


З нами з: 08.07.12
Востаннє: 21.01.18
Повідомлень: 34

2015-03-30 11:30  
1080p качати будуть!!!
Ваш часовий пояс: GMT + 2 Години

Нова тема   Відповісти