Відважна / Brave (2012) 1080p 3D OverUnder Ukr/Eng | Sub Ukr/Eng

Нові коментарі

Нова тема   Відповісти
Автор Повідомлення
dinosaurus 
Частий відвідувач


З нами з: 13.12.10
Востаннє: 17.07.17
Повідомлень: 36

2012-12-31 16:59  
Відважна / Brave (2012) 1080p 3D OverUnder Ukr/Eng | Sub Ukr/Eng

Відважна / Brave (2012) 1080p 3D OverUnder Ukr/Eng | Sub Ukr/Eng


Жанр: анімація, пригодницький, комедія, сімейний
Країна: США



Кіностудія / кінокомпанія: Walt Disney Pictures, Pixar Animation Studio
Режисер: Марк Ендрюс, Бренда Чемпан
Актори: Келлі МакДональд, Біллі Конноллі, Емма Томпсон, Джулі Волтерс, Робі Колтрейн, Кевін МакКід, Крейг ФергюсонКеллі МакДональд, Біллі Конноллі, Емма Томпсон, Джулі Волтерс, Робі Колтрейн, Кевін МакКід, Крейг Фергюсон
Український дубляж

Меріда - Юлія Шаповал
Ферґюс - Сергій Сивохо
Елінор - Ольга Сумська
Відьма - Наталя Сумська
Лорд Дінґвол - Василь Мазур
Лорд Макґафін - Микола Карцев
Лорд Макінтош - Андрій Альохін
Моді - Ганна Левченко
Меріда-дитина - Софія Масаутова
Син Макґафіна - Володимир Канівець
Син Макінтоша - Дмитро Сова
Ворон - Олександр Погребняк
Син Дінґвола - Олександр Погребняк
Мартін - Кирило Андрєєв
Гордон - Сергій Солопай
Сюжет:
Споконвіку міфи і легенди огортають загадковим серпанком мальовничі Шотландські межигір'я. Майстерній лучниці Меріді доводиться вибирати свій шлях у житті самостійно і одного разу вона відмовляється слідувати стародавнім традиціям королівства, кидаючи виклик могутнім шотландським кланам і їх ватажкам: нескладному лорду МакГаффіну, похмурому лорду Макінтош і сварливому лорду Дінгволлу. Необережні вчинки Меріди загрожують повалити королівство у хаос, і тоді вона відправляється за порадою до ексцентричної самітниці, яка замість допомоги накладає на Меріду небезпечне закляття. Юній принцесі належить покладатися тільки на власну хоробрість, щоб подолати могутнє чаклунство і перемогти самого страшного звіра з тих, що водяться в гірських долинах.


Тривалість: 1:34:07
Якість:
Відео:
кодек:
розмір кадру: 1980 х 1080
бітрейт: 12 мб/с

Аудіо # 1:
мова: українська
переклад: професійний дубльований
кодек: 5.1
бітрейт: 448 кб/с

Аудіо # 2:
мова: англійська
переклад: оригінал
кодек: 5.1
бітрейт: 640 кб/с

Джерело озвучення:


Субтитри:
мова: українська
тип: програмні (м'які)
формат: *.srt

Субтитри:
мова: англійська
тип: програмні (м'які)
формат: *.srt
Info
General
Unique ID : 203966627249614174995810738436880501233 (0x99728B234FE6EB6E957E2665907089F1)
Complete name : D:\film\animation\Brave\brave 3d overunder 1080p ukr eng.
Format :
Format version : Version 4 / Version 2
File size : 8.61 GiB
Duration : 1h 34mn
Overall bit rate : 13.1 Mbps
Movie name : Brave 3D (2012) by HDMaNiAcS
Encoded date : UTC 2010-02-22 21:41:31
Writing application : mkvmerge v5.9.0 ('On The Loose') built on Dec 9 2012 15:37:01
Writing library : libebml v1.3.0 + libmatroska v1.4.0

Video
ID : 1
Format : AVC
Format/Info : Advanced Video Codec
Format profile : [email protected]
Format settings, CABAC : Yes
Format settings, ReFrames : 4 frames
Codec ID : V_MPEG4/ISO/AVC
Duration : 1h 34mn
Bit rate : 12.0 Mbps
Width : 1 920 pixels
Height : 1 080 pixels
Display aspect ratio : 16:9
Frame rate mode : Constant
Frame rate : 23.976 fps
Color space : YUV
Chroma subsampling : 4:2:0
Bit depth : 8 bits
Scan type : Progressive
Bits/(Pixel*Frame) : 0.241
Stream size : 7.72 GiB (90%)
Title : Brave 3D (2012)
Writing library : core 128 r2216 198a7ea
Encoding settings : cabac=1 / ref=4 / deblock=1:-2:-2 / analyse=0x3:0x113 / me=esa / subme=10 / psy=1 / psy_rd=0.80:0.00 / mixed_ref=1 / me_range=32 / chroma_me=1 / trellis=2 / 8x8dct=1 / cqm=0 / deadzone=21,11 / fast_pskip=1 / chroma_qp_offset=-2 / threads=12 / lookahead_threads=2 / sliced_threads=0 / nr=0 / decimate=0 / interlaced=0 / bluray_compat=0 / constrained_intra=0 / bframes=6 / b_pyramid=2 / b_adapt=2 / b_bias=0 / direct=3 / weightb=1 / open_gop=0 / weightp=2 / keyint=250 / keyint_min=23 / scenecut=40 / intra_refresh=0 / rc=2pass / mbtree=0 / bitrate=12000 / ratetol=1.0 / qcomp=0.65 / qpmin=0 / qpmax=69 / qpstep=4 / cplxblur=20.0 / qblur=0.5 / ip_ratio=1.35 / pb_ratio=1.25 / aq=1:0.70
Language : English
Default : Yes
Forced : No

Audio #1
ID : 2
Format : AC-3
Format/Info : Audio Coding 3
Mode extension : CM (complete main)
Format settings, Endianness : Big
Codec ID : A_AC3
Duration : 1h 34mn
Bit rate mode : Constant
Bit rate : 448 Kbps
Channel(s) : 6 channels
Channel positions : Front: L C R, Side: L R, LFE
Sampling rate : 48.0 KHz
Bit depth : 16 bits
Compression mode : Lossy
Stream size : 302 MiB (3%)
Title : / 5.1 ch / 448 kbps / Український дубляж BD CEE
Language : Ukrainian
Default : Yes
Forced : No

Audio #2
ID : 3
Format : AC-3
Format/Info : Audio Coding 3
Mode extension : CM (complete main)
Format settings, Endianness : Big
Codec ID : A_AC3
Duration : 1h 34mn
Bit rate mode : Constant
Bit rate : 640 Kbps
Channel(s) : 6 channels
Channel positions : Front: L C R, Side: L R, LFE
Sampling rate : 48.0 KHz
Bit depth : 16 bits
Compression mode : Lossy
Stream size : 431 MiB (5%)
Title : / 5.1 ch / 640 kbps / Original
Language : English
Default : No
Forced : No

Text #1
ID : 4
Format : UTF-8
Codec ID : S_TEXT/UTF8
Codec ID/Info : UTF-8 Plain Text
Language : Ukrainian
Default : No
Forced : No

Text #2
ID : 5
Format : UTF-8
Codec ID : S_TEXT/UTF8
Codec ID/Info : UTF-8 Plain Text
Language : English
Default : No
Forced : No
Скріншоти







Джерело:
Особиста оцінка: 10 - без зайвих вагань рекомендую всім!


 Трекер:    Зареєстрований   

Завантажити / скачати мультфільм українською



відео для новачків



 Зареєстрований:   2012-12-31 16:59
 Розмір:   8.61 GB 
 Оцінка мультфільму:   10/10 (Голосів: 20)
   
Інші релізи
   Відважна / Brave (2012) DVD9 Ліцензія Beffis  4 / 0   7.49 GB   2015-01-23 11:09 
   Відважна / Brave (2012) |Ліцензія| (480x320) nestorpopko  0 / 0   763 MB   2012-12-16 13:36 
   Відважна / Brave (2012) 720p Ukr/Eng | Sub Ukr/Eng Zeus62  7 / 1   4.23 GB   2012-11-27 13:34 
   Відважна / Brave (2012) Remux 1080p Ukr/Eng | Sub Ukr/Eng 11FrYkT  2 / 0   20.42 GB   2012-11-19 10:29 
   Відважна / Brave (2012) 1080p Ukr/Eng | Sub Ukr/Eng 11FrYkT  8 / 1   6.48 GB   2012-11-18 13:11 
   Відважна / Brave (2012) AVC Ukr | sub Ukr/Eng DеLight  12 / 0   1.46 GB   2012-11-16 10:14 
   Відважна / Brave (2012) Ukr/Eng | Sub Ukr/Eng Gelios  9 / 0   1.75 GB   2012-11-16 09:27 
   Відважна / Brave (2012) |Ліцензія sstonecold1  53 / 0   1.46 GB   2012-11-16 01:07 
ratbol 
Модератор HD


З нами з: 03.02.09
Востаннє: 20.08.17
Повідомлень: 1083

2012-12-31 17:30  
Додайте посилання на усі релізи у 3D та на інструкції по відтворенню, як ось тут https://toloka.to/t21847
klyus77 
Новенький


З нами з: 18.08.12
Востаннє: 28.03.15
Повідомлень: 2

2013-01-01 00:23  
Супер мультик.
Ваш часовий пояс: GMT + 2 Години

Нова тема   Відповісти