Cepasa - Doing Right (2012) [FLAC] | Dance / Electronica / Techno

Нові коментарі

Нова тема   Відповісти
Автор Повідомлення
muhomor 
VIP


З нами з: 04.12.11
Востаннє: 01.06.17
Повідомлень: 297

2012-12-26 09:58  
Cepasa - Doing Right (2012) [FLAC] | Dance / Electronica / Techno

Cepasa - Doing Right (2012) [FLAC] | Dance / Electronica / Techno


Стиль: Dance / Electronica / Techno
Країна, місто: Україна, Київ
Сайти: Офіційний сайт
Видавець: MOON Records
Виконавці:
Павло Ленченко - музика, тексти, вокал
Пісні:
    01. Caroline
    02. Doing Right
    03. Are You Ok
    04. Cherry
    05. Other Place
    06. Portugal
    07. What We Do
    08. Reset
    09. Smoke
    10. You Are
    11. Believe
    Audiochecker


    AUDIOCHECKER v2.0 beta (build 457) - by Dester - [email protected]
    ~~~~~~~~~~~~~~~~~~~~~~~~~~~~~~~~~~

    Started at: среда, 26. 12. 2012. - 8:46.58
    11 files found

    01 -===- D:\hurtom.com\Cepasa - «Doing Right» (2012) (FLAC)\01 Cepasa Caroline.flac
    Extracted successfully
    Conclusion: this track is CDDA with probability 100%
    Tempfile successfully deleted.

    02 -===- D:\hurtom.com\Cepasa - «Doing Right» (2012) (FLAC)\02 Cepasa Doing Right.flac
    Extracted successfully
    Conclusion: this track is CDDA with probability 100%
    Tempfile successfully deleted.

    03 -===- D:\hurtom.com\Cepasa - «Doing Right» (2012) (FLAC)\03 Cepasa Are You Ok.flac
    Extracted successfully
    Conclusion: this track is CDDA with probability 100%
    Tempfile successfully deleted.

    04 -===- D:\hurtom.com\Cepasa - «Doing Right» (2012) (FLAC)\04 Cepasa Cherry.flac
    Extracted successfully
    Conclusion: this track is CDDA with probability 100%
    Tempfile successfully deleted.

    05 -===- D:\hurtom.com\Cepasa - «Doing Right» (2012) (FLAC)\05 Cepasa Other Place.flac
    Extracted successfully
    Conclusion: this track is CDDA with probability 100%
    Tempfile successfully deleted.

    06 -===- D:\hurtom.com\Cepasa - «Doing Right» (2012) (FLAC)\06 Cepasa Portugal.flac
    Extracted successfully
    Conclusion: this track is CDDA with probability 99%
    Tempfile successfully deleted.

    07 -===- D:\hurtom.com\Cepasa - «Doing Right» (2012) (FLAC)\07 Cepasa What We Do.flac
    Extracted successfully
    Conclusion: this track is CDDA with probability 100%
    Tempfile successfully deleted.

    08 -===- D:\hurtom.com\Cepasa - «Doing Right» (2012) (FLAC)\08 Cepasa Reset.flac
    Extracted successfully
    Conclusion: this track is CDDA with probability 100%
    Tempfile successfully deleted.

    09 -===- D:\hurtom.com\Cepasa - «Doing Right» (2012) (FLAC)\09 Cepasa Smoke.flac
    Extracted successfully
    Conclusion: this track is CDDA with probability 100%
    Tempfile successfully deleted.

    10 -===- D:\hurtom.com\Cepasa - «Doing Right» (2012) (FLAC)\10 Cepasa You Are.flac
    Extracted successfully
    Conclusion: this track is CDDA with probability 76%
    Tempfile successfully deleted.

    11 -===- D:\hurtom.com\Cepasa - «Doing Right» (2012) (FLAC)\11 Cepasa Believe.flac
    Extracted successfully
    Conclusion: this track is CDDA with probability 100%
    Tempfile successfully deleted.

    Finished at: среда, 26. 12. 2012. - 8:53.34 (operation time: 0:06.36)
    Log

    Exact Audio Copy V1.0 beta 3 from 29. August 2011

    Отчёт EAC об извлечении, выполненном 11. декабря 2012, 23:00

    Cepasa / «Doing Right»

    Дисковод: ASUS DRW-2014S1T Adapter: 2 ID: 8

    Режим чтения : Достоверность
    Использование точного потока : Да
    Отключение кэша аудио : Да
    Использование указателей C2 : Нет

    Коррекция смещения при чтении : 6
    Способность читать области Lead-in и Lead-out : Нет
    Заполнение пропущенных сэмплов тишиной : Да
    Удаление блоков с тишиной в начале и конце : Нет
    При вычислениях CRC использовались нулевые сэмплы : Да
    Интерфейс : Встроенный Win32-интерфейс для Win NT/2000
    Обработка зазоров : Добавлено к предыдущему треку

    Выходной формат : Пользовательский кодировщик
    Выбранный битрейт : 128 kBit/s
    Качество : Высокий
    Добавление ID3-тега : Нет
    Утилита сжатия : C:\Program Files\Exact Audio Copy\Flac\flac.exe
    Дополнительные параметры : -V -8 -T "Genre=%genre%" -T "Artist=%artist%" -T "Title=%title%" -T "Album=%albumtitle%" -T "Date=%year%" -T "Tracknumber=%tracknr%" -T "Comment=%comment%" %source%

    TOC извлечённого CD

    Трек | Старт | Длительность | Начальный сектор | Конечный сектор
    ---------------------------------------------------------------------
    1 | 0:00.00 | 5:46.61 | 0 | 26010
    2 | 5:46.61 | 5:19.51 | 26011 | 49986
    3 | 11:06.37 | 5:30.73 | 49987 | 74809
    4 | 16:37.35 | 3:37.37 | 74810 | 91121
    5 | 20:14.72 | 5:42.07 | 91122 | 116778
    6 | 25:57.04 | 4:04.28 | 116779 | 135106
    7 | 30:01.32 | 4:01.64 | 135107 | 153245
    8 | 34:03.21 | 4:20.03 | 153246 | 172748
    9 | 38:23.24 | 3:24.71 | 172749 | 188119
    10 | 41:48.20 | 3:55.31 | 188120 | 205775
    11 | 45:43.51 | 5:00.00 | 205776 | 228275

    Трек 1

    Имя файла D:\Documents and Settings\user\Рабочий стол\«»—0–\01 Cepasa Caroline.wav

    Длина предзазора 0:00:02.00

    Пиковый уровень 96.8 %
    Скорость извлечения 5.4 X
    Качество трека 100.0 %
    CRC теста 96A840CB
    CRC копии 96A840CB
    Копирование... OK

    Трек 2

    Имя файла D:\Documents and Settings\user\Рабочий стол\«»—0–\02 Cepasa Doing Right.wav

    Пиковый уровень 96.8 %
    Скорость извлечения 5.5 X
    Качество трека 99.9 %
    CRC теста EB962983
    CRC копии EB962983
    Копирование... OK

    Трек 3

    Имя файла D:\Documents and Settings\user\Рабочий стол\«»—0–\03 Cepasa Are You Ok.wav

    Пиковый уровень 96.8 %
    Скорость извлечения 6.1 X
    Качество трека 99.9 %
    CRC теста A4A27645
    CRC копии A4A27645
    Копирование... OK

    Трек 4

    Имя файла D:\Documents and Settings\user\Рабочий стол\«»—0–\04 Cepasa Cherry.wav

    Пиковый уровень 96.8 %
    Скорость извлечения 6.8 X
    Качество трека 100.0 %
    CRC теста D993C23E
    CRC копии D993C23E
    Копирование... OK

    Трек 5

    Имя файла D:\Documents and Settings\user\Рабочий стол\«»—0–\05 Cepasa Other Place.wav

    Пиковый уровень 96.8 %
    Скорость извлечения 7.8 X
    Качество трека 100.0 %
    CRC теста 66A5A864
    CRC копии 66A5A864
    Копирование... OK

    Трек 6

    Имя файла D:\Documents and Settings\user\Рабочий стол\«»—0–\06 Cepasa Portugal.wav

    Пиковый уровень 96.8 %
    Скорость извлечения 6.9 X
    Качество трека 99.9 %
    CRC теста E0E14728
    CRC копии E0E14728
    Копирование... OK

    Трек 7

    Имя файла D:\Documents and Settings\user\Рабочий стол\«»—0–\07 Cepasa What We Do.wav

    Пиковый уровень 96.8 %
    Скорость извлечения 8.1 X
    Качество трека 100.0 %
    CRC теста 6920077E
    CRC копии 6920077E
    Копирование... OK

    Трек 8

    Имя файла D:\Documents and Settings\user\Рабочий стол\«»—0–\08 Cepasa Reset.wav

    Пиковый уровень 96.8 %
    Скорость извлечения 8.6 X
    Качество трека 100.0 %
    CRC теста CB103DAE
    CRC копии CB103DAE
    Копирование... OK

    Трек 9

    Имя файла D:\Documents and Settings\user\Рабочий стол\«»—0–\09 Cepasa Smoke.wav

    Пиковый уровень 96.8 %
    Скорость извлечения 8.4 X
    Качество трека 100.0 %
    CRC теста B7218538
    CRC копии B7218538
    Копирование... OK

    Трек 10

    Имя файла D:\Documents and Settings\user\Рабочий стол\«»—0–\10 Cepasa You Are.wav

    Пиковый уровень 96.8 %
    Скорость извлечения 9.0 X
    Качество трека 100.0 %
    CRC теста 09AC606C
    CRC копии 09AC606C
    Копирование... OK

    Трек 11

    Имя файла D:\Documents and Settings\user\Рабочий стол\«»—0–\11 Cepasa Believe.wav

    Пиковый уровень 96.8 %
    Скорость извлечения 9.7 X
    Качество трека 100.0 %
    CRC теста A9242CF8
    CRC копии A9242CF8
    Копирование... OK

    Ошибок не произошло

    Конец отчёта

    ==== Контрольная сумма отчёта F9FF0310F241D7F664604C4EEF0FBDC12F37B4708C48B7BE1071F5EE51F10030 ====

Тривалість: 00:50:40
Мова: англійська
Аудіо-кодек: FLAC
Бітрейт: 827 кб/с
Джерело: ріп із власного CD
Додаткова інформація:
Дебютна платівка сольного проекту учасника Tomato Jaws. Мало кому відомо, що Павло крім роботи у складі свого основного гурту, успішно співпрацює з українськими дизайнерами одягу, пишучи музику для їхніх показів. А в 2011-му його спільна з ірландцем Darran Nugent композиція «How Can I» займала перше місце у рейтингу синглів на Junodownload.com.


Якщо Ви справді бажаєте підтримати українське - після прослуховування, якщо музика вам сподобалась, придбайте ліцензійний диск. Підтримаймо вітчизняних виконавців!


Срібний реліз (на рейтинг впливає 50% завантаженого)
 Трекер:    Зареєстрований   

Завантажити / скачати українську музику



відео для новачків



 Зареєстрований:   2012-12-26 09:58
 Розмір:   300 MB 
 Оцінка музики:   7.8/10 (Голосів: 4)
   
Ваш часовий пояс: GMT + 2 Години

Нова тема   Відповісти