Не бійтеся бути святими / Папа Іван Павло II / Шлях до України (2011)

Нові коментарі

Нова тема   Відповісти
Автор Повідомлення
Мавпа 
Новенький


З нами з: 20.12.12
Востаннє: 07.01.15
Повідомлень: 6

2012-12-21 17:26  
Не бійтеся бути святими / Папа Іван Павло II / Шлях до України (2011)

Не бійтеся бути святими / Папа Іван Павло II / Шлях до України (2011)


Жанр: біографічний, документальний, історичний
Країна: Україна

Режисер: Світлана Остапенко
Сюжет:
Історія життя Папи Івана Павла II. Автор ідеї о. Теодозій Янків, базуючись на історичних даних, показує шлях Кароля Войтили від народження аж до приїзду в 2001 році до України, паралельно висвітлюючи тодішні історичні події. Фільм загалом показує всі реалії подій, що супроводжували життя та служіння блаженного.


Тривалість: 01:42:54
Якість:
Відео:
кодек:
розмір кадру: 720х432
бітрейт: 1640 кб/с

Аудіо:
мова: українська
переклад: оригінал
кодек: MP2
бітрейт: 256 кб/с

Скріншоти


Джерело:


Золотий реліз (завантажене не впливає на рейтинг)
 Трекер:    Зареєстрований   

Завантажити / скачати фільм українською



відео для новачків



 Зареєстрований:   2012-12-21 17:26
 Розмір:   1.37 GB 
 Оцінка фільму:   9.4/10 (Голосів: 17)
   
Мавпа 
Новенький


З нами з: 20.12.12
Востаннє: 07.01.15
Повідомлень: 6

2012-12-21 17:31  
Звіт Info:
General
Complete name : D:\toloka.to\Не бійтеся бути святими (2011) [Мавпа].avi
Format : AVI
Format/Info : Audio Video Interleave
File size : 1.37 GiB
Duration : 1h 42mn
Overall bit rate : 1 906 Kbps
Writing library : VirtualDub build 34807/release

Video
ID : 0
Format : MPEG-4 Visual
Format profile : Advanced [email protected]
Format settings, BVOP : No
Format settings, QPel : No
Format settings, GMC : No warppoints
Format settings, Matrix : Default (MPEG)
Codec ID : DX50
Codec ID/Hint : DivX 5
Duration : 1h 42mn
Bit rate : 1 640 Kbps
Width : 720 pixels
Height : 432 pixels
Display aspect ratio : 1.667
Frame rate : 25.000 fps
Color space : YUV
Chroma subsampling : 4:2:0
Bit depth : 8 bits
Scan type : Progressive
Compression mode : Lossy
Bits/(Pixel*Frame) : 0.211
Stream size : 1.18 GiB (86%)
Writing library : 65

Audio
ID : 1
Format : MPEG Audio
Format version : Version 1
Format profile : Layer 2
Codec ID : 50
Duration : 1h 42mn
Bit rate mode : Constant
Bit rate : 256 Kbps
Channel(s) : 2 channels
Sampling rate : 48.0 KHz
Compression mode : Lossy
Stream size : 188 MiB (13%)
Alignment : Aligned on interleaves
Interleave, duration : 40 ms (1.00 video frame)
Interleave, preload duration : 504 ms
Сценарій AviSynth:
ffvideosource ("D:\01.mpeg")
Crop (0, 68, -0, -76)
Spline36Resize (720, 432, 0, 0, -0, -1)
[посилання] - джерело. [посилання] - скріншоти порівняння.

Ваш часовий пояс: GMT + 2 Години

Нова тема   Відповісти