Пухнасті проти зубастих / The Outback (2012) 1080p

Нові коментарі

Нова тема   Відповісти
Автор Повідомлення
Anonymous 







2012-12-03 11:42  
Пухнасті проти зубастих / The Outback (2012) 1080p

Пухнасті проти зубастих / The Outback (2012) 1080p


Жанр: анімація, пригодницький, сімейний
Країна: Південна Корея, США



Кіностудія / кінокомпанія: Animation Picture Company, Digiart Productions, Lotte Entertainment
Режисер: Кіунг Хо Лі / Kyung Ho Lee
Актори: Чарлі Беюлі / Charlie Bewley, Алан Куммінг / Alan Cumming, Тім Куррі / Tim Curry, Кріс Еджерлі / Chris Edgerly, Ерік Лопез / Eric Lopez, Норм МакДональд / Norm MacDonald, Брет МакКензі / Bret McKenzie, Нолан Норт / Nolan North, Філ Проктор / Phil Proctor, Дженні Пулос / Jenni Pulos, Ніл Росс / Neil Ross, Роб Шнейдер / Rob Schneider, Івонне Страовскі / Yvonne Strahovski, Санні / Sunny, Темін / Taemin

Сюжет:
Джонні - білий коала, виступаючий в пересувному цирку для незвичайних звірів. Він - зірка, але все змінюється, коли в цирк приходить працювати знаменитий приборкувач звірів - тепер вся увага глядачів прикута до нього. На одному з переїздів Джонні і його приятелі, мавпа і ящірка Хемміш, випадково розгойдують клітку, вивалюються з фургона і опиняються посеред пустелі. Намагаючись знайти найкоротший шлях до цивілізації, вони натикаються на дивний оазис, де живуть різні тварини, в тому числі - біла коала Мінні.

Звірі щасливі у своєму будинку, але їх життя псує величезний крокодил, який націлився захопити оазис з допомогою своїх підручних - вовків і гігантського грифа. Хемміш розповідає мешканцям оазису, що Джонні - справжній герой, зірка цирку, і що він захистить їх. Боязкуватий Джонні дійсно робить вигляд, що він - супергерой, адже він хоче сподобатися Мінні. І трапляється диво: під час нападу вовків Джонні випадково відбиває їх атаку. Ті розповідають крокодилу, що у оазису з'явився сильний захисник і той наказує викрасти його. Але вовки плутають Джонні з Мінні і крадуть її. Тепер Джоні доведеться дійсно бути хоробрим, щоб вирвати Мінні з лап крокодила.


Тривалість: 01:25:32
Якість:
Відео:
кодек:
розмір кадру: 1920 х 1040
бітрейт: 6866 кб/с

Аудіо:
мова: українська
переклад: багатоголосий закадровий
кодек: 5.1
бітрейт: 448 кб/с
Інформація про озвучення

Режисер: Олександр Єфімов
Ролі озвучили: Дмитро Завадський, Андрій Федінчик, Ірина Грей, Анатолій Зіновенко, Андрій Альохін, Олександр Єфімов та інші.

Фільм перекладено і озвучено на студії AAA-sound на замовлення компанії Каскад Україна
Info
General
Unique ID : 170422089934179305974679133454385181332 (0x803619C229819C348D937E76ADCE7294)
Complete name : H:\The.Outback.2012.1080p.Ukr.
Format :
Format version : Version 2
File size : 4.37 GiB
Duration : 1h 25mn
Overall bit rate : 7 313 Kbps
Movie name : Пухнасті проти зубастих / Пушистые против Зубастых / The Outback (2012)
Encoded date : UTC 2012-12-03 06:49:41
Writing application : mkvmerge v5.8.0 ('No Sleep / Pillow') built on Sep 2 2012 15:37:04
Writing library : libebml v1.2.3 + libmatroska v1.3.0

Video
ID : 1
Format : AVC
Format/Info : Advanced Video Codec
Format profile : [email protected]
Format settings, CABAC : Yes
Format settings, ReFrames : 4 frames
Codec ID : V_MPEG4/ISO/AVC
Duration : 1h 25mn
Bit rate : 6 866 Kbps
Width : 1 920 pixels
Height : 1 040 pixels
Display aspect ratio : 1.85:1
Frame rate mode : Constant
Frame rate : 23.976 fps
Color space : YUV
Chroma subsampling : 4:2:0
Bit depth : 8 bits
Scan type : Progressive
Bits/(Pixel*Frame) : 0.143
Stream size : 4.01 GiB (92%)
Title : Release by AlexKa
Writing library : core 129 r2230 1cffe9f
Encoding settings : cabac=1 / ref=4 / deblock=1:0:0 / analyse=0x3:0x133 / me=umh / subme=10 / psy=1 / psy_rd=1.00:0.00 / mixed_ref=1 / me_range=32 / chroma_me=1 / trellis=2 / 8x8dct=1 / cqm=0 / deadzone=21,11 / fast_pskip=0 / chroma_qp_offset=-2 / threads=12 / lookahead_threads=2 / sliced_threads=0 / nr=0 / decimate=0 / interlaced=0 / bluray_compat=0 / constrained_intra=0 / bframes=5 / b_pyramid=2 / b_adapt=2 / b_bias=0 / direct=3 / weightb=1 / open_gop=0 / weightp=2 / keyint=240 / keyint_min=23 / scenecut=40 / intra_refresh=0 / rc=2pass / mbtree=0 / bitrate=6866 / ratetol=1.0 / qcomp=0.60 / qpmin=0 / qpmax=69 / qpstep=4 / cplxblur=20.0 / qblur=0.5 / ip_ratio=1.40 / pb_ratio=1.30 / aq=1:0.50
Language : English
Default : Yes
Forced : No

Audio
ID : 2
Format : AC-3
Format/Info : Audio Coding 3
Mode extension : CM (complete main)
Format settings, Endianness : Big
Codec ID : A_AC3
Duration : 1h 25mn
Bit rate mode : Constant
Bit rate : 448 Kbps
Channel(s) : 6 channels
Channel positions : Front: L C R, Side: L R, LFE
Sampling rate : 48.0 KHz
Bit depth : 16 bits
Compression mode : Lossy
Stream size : 274 MiB (6%)
Title : Ukr MVO AAA-sound [Hurtom]
Language : Ukrainian
Default : Yes
Forced : No

Menu
00:00:00.000 : :Chapter 01
00:07:13.850 : :Chapter 02
00:15:35.017 : :Chapter 03
00:23:01.254 : :Chapter 04
00:32:05.423 : :Chapter 05
00:39:10.639 : :Chapter 06
00:47:37.312 : :Chapter 07
00:55:44.132 : :Chapter 08
01:02:44.010 : :Chapter 09
01:11:29.702 : :Chapter 10
01:20:03.715 : :Chapter 11
01:21:54.784 : :Chapter 12
01:25:31.751 : :Chapter 13
Скріншоти :


Джерело: відео від AlexKa (rutor), звук та оформлення взято з релізу karvai0
Особиста оцінка: 0 - планую переглянути найближчим часом


 Трекер:    Зареєстрований   

Завантажити / скачати мультфільм українською



відео для новачків



 Зареєстрований:   2012-12-03 11:54
 Розмір:   4.37 GB 
 Оцінка мультфільму:   5.7/10 (Голосів: 23)
   
Інші релізи
   Пухнасті проти зубастих / The Outback (2012) karvai0  6 / 0   1.45 GB   2012-11-27 20:53 
Goratsio 
Свій


З нами з: 19.12.10
Востаннє: 20.08.17
Повідомлень: 106

2012-12-03 18:27  
Перегляд в кінотеатрі сподобався)))
Мультик позитивний і цікавий)

27CELTICS04 
Новенький


З нами з: 16.02.12
Востаннє: 08.09.13
Повідомлень: 2

2012-12-31 16:45  

Vovka morkovka 
Свій


З нами з: 24.11.10
Востаннє: 10.08.17
Повідомлень: 72

2013-12-24 20:43  
Не знаю як вам, але мені,особисто, цей мультик не сподобався! Графіка текстур на низькому рівні, сюжет ніякий! Просто жах!
Ваш часовий пояс: GMT + 2 Години

Нова тема   Відповісти