Мій сусід Тоторо / Tonari no Totoro / My Neighbor Totoro (1988) 720p Ukr/Jap | Sub Ukr/Jap

Нові коментарі

Нова тема   Відповісти
Автор Повідомлення
Omikron 
VIP


З нами з: 03.01.12
Востаннє: 09.08.17
Повідомлень: 313

2012-11-22 20:05  
Мій сусід Тоторо / Tonari no Totoro / My Neighbor Totoro (1988) 720p Ukr/Jap | Sub Ukr/Jap


Жанр: пригоди, сімейний
Країна: Японія

Top 250 #165

Кіностудія / кінокомпанія: Nibariki, Studio Ghibli, Tokuma Japan Communications Co. Ltd.
Режисер: Хаяо Міядзакі
Актори: Тошіюкі Амагаса, Пол Батчер, Пет Керролл, Шеріл Чейз, Шигеру Чіба, Лара Коуді, Наталі Кор, Тім Дейлі, Дакота Фаннінг, Ель Фаннінг

Сюжет:
Переїхавши в село, дві маленькі сестри, старша (Сацукі) і молодша (Мей), знайомляться з лісовим духом, якого Мей називає «Тоторо» (спотворене «троль»). Подружившись з дівчатками, Тоторо не лише влаштовує їм повітряну екскурсію по своїх володіннях, але і допомагає побачитися з мамою, яка лежить у лікарні.


Перекладено та озвучено студією "Омікрон" на замовлення HURTOM.COM


Тривалість: 01:26:25
Якість:
Відео:
кодек:
розмір кадру: 1280x692
бітрейт: 4357 кб/с

Аудіо # 1:
мова: українська | "Студія Омікрон" |
переклад: багатоголосий закадровий
кодек: 2.0
бітрейт: 224 кб/с

Аудіо # 2:
мова: японська
переклад: оригінал
кодек: 2.0
бітрейт: 224 кб/с

Субтитри # 1:
мова: українська
тип: програмні (м'які)
формат: *.srt
автор: houkiboshi[]ukr.net (uanime.org.ua)

Субтитри # 2:
мова: японська
тип: програмні (м'які)
формат: *.sub

Звіт Info:
General
Unique ID : 227610022902157495539213121395953450979 (0xAB3C188B43774B86A959C61D5FC33FE3)
Complete name : Tonari no Totoro (1988) [ukr,jpn] 720p [Hurtom].
Format :
Format version : Version 2
File size : 2.90 GiB
Duration : 1h 26mn
Overall bit rate : 4 810 Kbps
Movie name : Мій сусід Тоторо / Tonari no Totoro (1988) [Hurtom]
Encoded date : UTC 2012-11-22 22:25:27
Writing application : mkvmerge v5.8.0 ('No Sleep / Pillow') built on Sep 2 2012 15:37:04
Writing library : libebml v1.2.3 + libmatroska v1.3.0

Video
ID : 1
Format : AVC
Format/Info : Advanced Video Codec
Format profile : [email protected]
Format settings, CABAC : Yes
Format settings, ReFrames : 8 frames
Codec ID : V_MPEG4/ISO/AVC
Duration : 1h 26mn
Bit rate : 4 357 Kbps
Width : 1 280 pixels
Height : 692 pixels
Display aspect ratio : 1.85:1
Frame rate mode : Constant
Frame rate : 23.976 fps
Color space : YUV
Chroma subsampling : 4:2:0
Bit depth : 8 bits
Scan type : Progressive
Bits/(Pixel*Frame) : 0.205
Stream size : 2.58 GiB (89%)
Writing library : core 129 r2230 1cffe9f
Encoding settings : cabac=1 / ref=8 / deblock=1:-3:-2 / analyse=0x3:0x133 / me=umh / subme=10 / psy=1 / psy_rd=1.00:0.15 / mixed_ref=1 / me_range=24 / chroma_me=1 / trellis=2 / 8x8dct=1 / cqm=0 / deadzone=21,11 / fast_pskip=0 / chroma_qp_offset=-3 / threads=12 / lookahead_threads=2 / sliced_threads=0 / nr=0 / decimate=1 / interlaced=0 / bluray_compat=0 / constrained_intra=0 / bframes=5 / b_pyramid=2 / b_adapt=2 / b_bias=0 / direct=3 / weightb=1 / open_gop=0 / weightp=2 / keyint=240 / keyint_min=23 / scenecut=40 / intra_refresh=0 / rc_lookahead=60 / rc=2pass / mbtree=1 / bitrate=4357 / ratetol=1.0 / qcomp=0.60 / qpmin=0 / qpmax=69 / qpstep=4 / cplxblur=20.0 / qblur=0.5 / ip_ratio=1.40 / aq=1:1.00
Default : Yes
Forced : No

Audio #1
ID : 2
Format : AC-3
Format/Info : Audio Coding 3
Mode extension : CM (complete main)
Format settings, Endianness : Big
Codec ID : A_AC3
Duration : 1h 26mn
Bit rate mode : Constant
Bit rate : 224 Kbps
Channel(s) : 2 channels
Channel positions : Front: L R
Sampling rate : 48.0 KHz
Bit depth : 16 bits
Compression mode : Lossy
Stream size : 138 MiB (5%)
Title : Озвучено студією Омікрон на замовлення hurtom.com
Language : Ukrainian
Default : Yes
Forced : No

Audio #2
ID : 3
Format : AC-3
Format/Info : Audio Coding 3
Mode extension : CM (complete main)
Format settings, Endianness : Big
Codec ID : A_AC3
Duration : 1h 26mn
Bit rate mode : Constant
Bit rate : 224 Kbps
Channel(s) : 2 channels
Channel positions : Front: L R
Sampling rate : 48.0 KHz
Bit depth : 16 bits
Compression mode : Lossy
Stream size : 138 MiB (5%)
Title : Original
Language : Japanese
Default : No
Forced : No

Text #1
ID : 4
Format : UTF-8
Codec ID : S_TEXT/UTF8
Codec ID/Info : UTF-8 Plain Text
Title : [email protected] (uanime.org.ua)
Language : Ukrainian
Default : No
Forced : No

Text #2
ID : 5
Format : VobSub
Codec ID : S_VOBSUB
Codec ID/Info : The same subtitle format used on DVDs
Title : Original
Language : Japanese
Default : No
Forced : No
log:
[info]: frame I:1003 Avg QP:15.89 size:156997
[info]: frame P:26915 Avg QP:18.98 size: 52870
[info]: frame B:96402 Avg QP:20.57 size: 12903
[info]: consecutive B-frames: 2.0% 1.6% 7.9% 19.3% 20.5% 48.6%
[info]: mb I I16..4: 3.7% 65.0% 31.2%
[info]: mb P I16..4: 0.2% 4.1% 1.5% P16..4: 40.9% 28.9% 21.8% 1.1% 0.5% skip: 1.0%
[info]: mb B I16..4: 0.0% 0.3% 0.1% B16..8: 40.2% 9.6% 2.7% direct: 6.9% skip:40.2% L0:48.4% L1:42.4% BI: 9.1%
[info]: 8x8 transform intra:68.4% inter:55.0%
[info]: direct mvs spatial:97.6% temporal:2.4%
[info]: coded y,uvDC,uvAC intra: 93.5% 84.9% 69.0% inter: 31.8% 19.6% 5.1%
[info]: i16 v,h,dc,p: 44% 9% 29% 18%
[info]: i8 v,h,dc,ddl,ddr,vr,hd,vl,hu: 15% 8% 11% 10% 12% 11% 11% 10% 13%
[info]: i4 v,h,dc,ddl,ddr,vr,hd,vl,hu: 24% 7% 4% 9% 12% 11% 11% 10% 12%
[info]: i8c dc,h,v,p: 46% 23% 19% 11%
[info]: Weighted P-Frames: Y:18.0% UV:3.5%
[info]: ref P L0: 32.4% 9.1% 19.1% 9.4% 9.7% 6.8% 7.5% 4.5% 1.3% 0.1%
[info]: ref B L0: 61.1% 16.4% 8.0% 5.8% 4.1% 3.1% 1.6%
[info]: ref B L1: 93.2% 6.8%
Про озвучення:

Українське озвучення створено студією "Омікрон" на замовлення Hurtom.com в рамках проекту "Хочеш кіно українською? Замовляй!"



Дякуємо користувачам, що фінансово допомогли проекту:
Медяник, AlGor-1, deepzb11, Alien8, Hadron, OLENOCHKA1980, cheks, bordiur4yk, MarianB, foevtcov, Triffid, Назар Хочубий, Sheldon, maryana, Ялина, Arijl, andryk, ponedilok, Bushido, Sergo_k_s_v, slava_4, rudchenkos, Nazz80, deepfree, seitar, Yelovbasted, Тарас12, MisterR, MutuLI, willian, Dim-ON, victor_v, Skif3, at3s, vilnui, IvanB123456, cyclone2000, yarik_ratnik, Beneverfearful, kivan, virtus8hur, JoaJoa16, danyshtv, Aussie, Лунсар, nemos, sash.kr, Rost3, krotyk, nemos, stalker_cv, Demetrios, kino., Dars, NemoInFire, somnambula, sania2011, ppk21, Violator, freshwind
Також дякуємо користувачам, що надали фінансову допомогу, але побажали бути анонімними.

Детальніше про проект.
За постер подяка Gelios.

Джерело:

Фільми, які було озвучено на замовлення Гуртом (допоможіть озвучити наступні):
М: Місто шукає вбивцю (1931)
Чарівник країни Оз (1939)
Великий диктатор (1940)
Громадянин Кейн (1941)
Подвійна страховка (1944)
Це дивовижне життя (1946)
Викрадачі велосипедів (1948)
Рашьомон (1950)
Сім самураїв (1954)
У випадку вбивства телефонуйте "М" (1954)
Дияволиці (1955)
Леді та Блудько (1955)
12 розгніваних чоловіків (1957)
Кривавий трон (1957)
Сьома печатка (1957)
На північ через північний захід (1959)
Більярдист (1961)
Охоронець (1961)
Вбити пересмішника (1962)
Людина, що вбила Ліберті Веленса (1962)
Вісім з половиною (1963)
Велика прогулянка (1966)
Як Ґрінч украв Різдво! (1966)
Випускник (1967)
Самурай (1967)
Одного разу на Дикому Заході (1968)
Коти-аристократи (1970)
Механічний апельсин (1971)
Навколо світу за 80 днів (1972)
Паперовий місяць (1973)
Китайський квартал (1974)
Пролітаючи над гніздом зозулі (1975)
Телемережа (1976)
Енні Голл (1977)
Мисливець на оленів (1978)
Буття Брайана за Монті Пайтоном (1979)
Коли я буду там (1979)
Мангеттен (1979)
Людина-слон (1980)
Приборкання норовливого (1980)
Скажений бик (1980)
Підводний човен (1981)
Ґанді (1982)
Король комедії (1982)
Різдвяна історія (1983)
Амадей (1984)
Просто кров (1984)
Барва пурпурова (1985)
Бразилія (1985)
Ран (1985)
Великий мишачий детектив (1986)
Небесний замок Лапута (1986)
Часи радіо (1987)
Акіра (1988)
Мій сусід Тоторо (1988)
Останній з могікан (1992)
Скажені пси (1992)
Шосе в нікуди (1997)
Американська історія Ікс (1998)
Страх і огида в Лас-Вегасі (1998)
Шоу Трумена (1998)
Догма (1999)
Магнолія (1999)
Сука любов (2000)
Нічия земля (2001)
Родина Тененбаумів (2001)
Тріо з Бельвіля (2003)
Труднощі перекладу (2003)
Бункер (2004)
Готель Руанда (2004)
Тренер Картер (2005)
Льодовиковий період 2 (2006)
Лабіринт Фавна (2006)
Людина з планети Земля (2007)
В тіні місяця (2007)
Голод (2008)
Іп Мен (2008)
Викрадена (2008)
Впусти мене (2008)
Хвиля (2008)
Містер Ніхто (2009)
13 вбивць (2010)
Бетмен: Під червоною маскою (2010)
Іп Мен 2 (2010)
Котяче життя (2010)
Позичайка Аріетті (2010)
Чорний Лебідь (2010)
Місто (2010)
Сенна (2010)
50/50 (2011)
Адвокат на лінкольні (2011)
Дерево життя (2011)
Опівночі в Парижі (2011)
Воїн (2011)
Драйв (2011)
Життя за один день (2011)
Укриття (2011)
Хижа в лісі (2011)
Рейд: Спокута (2011)
Акт вбивства (2012)
Арго (2012)
Безпека не гарантується (2012)
Викрадена 2 (2012)
Збірка промінців надії (2012)
Ернест і Селестіна (2012)
Звірі дикого Півдня (2012)
Лінкольн (2012)
Любов (2012)
Надійні хлопці (2012)
Паркер (2012)
Переваги скромників (2012)
Пліч-о-пліч (2012)
Полювання (2012)
Розірване коло (2012)
Суддя Дредд (2012)
Тридцять хвилин по півночі (2012)
Що б ви зробили (2012)
Американська афера (2013)
Виклик (2013)
Вона (2013)
Ворог (2013)
Всередині Л'ювіна Девіса (2013)
Джо (2013)
Зловісні мерці (2013)
Іда (2013)
Лок (2013)
Небраска (2013)
Неймовірна подорож містера Співета (2013)
Побічна дія (2013)
Перед північчю (2013)
Снігобур (2013)
Стокер (2013)
TPB: за межами клавіатури (2013)
Гниле місто (2013)
Бердмен (2014)
Вероніка Марс (2014)
Вроджена вада (2014)
Дика (2014)
Інтерв'ю (2014)
Святий Вінсент (2014)
Пісня моря (2014)
Призначення (2014)
Чим ми займаємося в тінях (2014)
Шеф-кухар (2014)
Безрідні звірі (2015)
Бруклін (2015)
Земля картелів (2015) нове
Кімната (2015)
Я, Ерл та помираюча дівчина (2015)
Манчестер біля моря (2016) нове
Нічні звірі (2016) нове


Авторський реліз (завантажувати можна без реєстрації)
 Трекер:    Зареєстрований   

Завантажити / скачати аніме українською



відео для новачків



 Зареєстрований:   2012-11-23 02:17
 Розмір:   2.9 GB 
 Оцінка аніме:   9.9/10 (Голосів: 56)
   
Sensetivity 
VIP


З нами з: 03.05.11
Востаннє: 03.01.13
Повідомлень: 2016

2012-11-23 09:20  
Конфуцію, чого ж ти так жалієш тих bfra'ймів?
Sensetivity 
VIP


З нами з: 03.05.11
Востаннє: 03.01.13
Повідомлень: 2016

2012-11-24 13:13  
Отже, перевірив я твою хвалену сумісність з моб. пристроями.
Перекодував звук у ААС, Нокія С6-01 відео не показує =(

Konfucius 
Управління
Управління


З нами з: 30.09.07
Востаннє: 18.08.17
Повідомлень: 4939

2012-11-25 13:04  
Sensetivity написано:
Перекодував звук у ААС, Нокія С6-01 відео не показує =(

Для неї треба level 3.1 та bframes 3

До речі, друге зображення в твоєму підписі займає понад 700 КБ

Sensetivity 
VIP


З нами з: 03.05.11
Востаннє: 03.01.13
Повідомлень: 2016

2012-11-25 13:37  
Konfucius
Не зовсім так, на ній спокійно йде отаке:

General
Complete name : F:\Різне\AMV\04137.BC2012.Example-Voltage21.amvnews.ru.mp4
Format : MPEG-4
Format profile : Base Media
Codec ID : isom
File size : 100 MiB
Duration : 3mn 18s
Overall bit rate mode : Variable
Overall bit rate : 4 235 Kbps
Movie name : Voltage!
Performer : Example
Genre : Big Contest 2012
Recorded date : 2012-04-18T00:00:00+02:00
Encoded date : UTC 2012-04-22 17:14:52
Tagged date : UTC 2012-04-22 17:14:52
Writing application : AMVsimple GUI 3.5_deluxe
Cover : Yes
Comment : Anime: Redline, Panty & Stocking with Garterbelt, Nisemonogatari, Sekirei, Sekirei Pure Engagement, Dan... / Music: Family Force 5 - Earthquake / More at AMVNews.ru
desc : ...
stik : 6
purl : (Binary)

Video
ID : 1
Format : AVC
Format/Info : Advanced Video Codec
Format profile : [email protected]
Format settings, CABAC : Yes
Format settings, ReFrames : 3 frames
Codec ID : avc1
Codec ID/Info : Advanced Video Coding
Duration : 3mn 18s
Bit rate : 3 886 Kbps
Maximum bit rate : 26.9 Mbps
Width : 1 280 pixels
Height : 720 pixels
Display aspect ratio : 16:9
Frame rate mode : Constant
Frame rate : 23.976 fps
Color space : YUV
Chroma subsampling : 4:2:0
Bit depth : 8 bits
Scan type : Progressive
Bits/(Pixel*Frame) : 0.176
Stream size : 91.7 MiB (92%)
Writing library : core 79 r1352 d487de4
Encoding settings : cabac=1 / ref=3 / deblock=1:0:0 / analyse=0x3:0x133 / me=umh / subme=10 / psy=0 / mixed_ref=1 / me_range=16 / chroma_me=1 / trellis=2 / 8x8dct=1 / cqm=0 / deadzone=21,11 / chroma_qp_offset=0 / threads=6 / nr=0 / decimate=1 / mbaff=0 / constrained_intra=0 / bframes=3 / b_pyramid=0 / b_adapt=2 / b_bias=0 / direct=3 / wpredb=1 / wpredp=2 / keyint=250 / keyint_min=25 / scenecut=40 / rc_lookahead=40 / rc=crf / mbtree=1 / crf=17.0 / qcomp=0.60 / qpmin=10 / qpmax=51 / qpstep=4 / ip_ratio=1.40 / aq=1:1.00
Encoded date : UTC 2012-04-22 17:00:37
Tagged date : UTC 2012-04-22 17:14:54

Audio
ID : 2
Format :
Format/Info : Advanced Audio Codec
Format profile : LC
Codec ID : 40
Duration : 3mn 18s
Bit rate mode : Variable
Bit rate : 340 Kbps
Maximum bit rate : 372 Kbps
Channel(s) : 2 channels
Channel positions : Front: L R
Sampling rate : 48.0 KHz
Compression mode : Lossy
Stream size : 8.04 MiB (8%)
Encoded date : UTC 2012-04-22 17:14:54
Tagged date : UTC 2012-04-22 17:14:54

Konfucius 
Управління
Управління


З нами з: 30.09.07
Востаннє: 18.08.17
Повідомлень: 4939

2012-11-25 15:31  
Хм, тоді напевне справа в bframes... Можеш спробувати якийсь мій старіший ріп, де було bframes 3?
Dr.Yurko 
Свій


З нами з: 14.03.10
Востаннє: 13.08.17
Повідомлень: 136

2013-02-18 00:24  
Дякую за виконану роботу! Чудовий і сповнений надзвичайною добротою мультфільм! Ну і, звичайно, Міядзакі... Це не просто прізвище, це ВЕЛИЧ!!
Wizard_Harry 
Свій


З нами з: 11.10.13
Востаннє: 16.08.17
Повідомлень: 112

2015-02-19 21:05  
Шедевр аніме, дякую
Ваш часовий пояс: GMT + 2 Години

Нова тема   Відповісти