The Maneken - First Look (2008) [FLAC] | FunK / Dance

Нові коментарі

Нова тема   Відповісти
Автор Повідомлення
muhomor 
VIP


З нами з: 04.12.11
Востаннє: 01.06.17
Повідомлень: 297

2012-11-22 01:33  
The Maneken - First Look (2008) [FLAC] | FunK / Dance

The Maneken - First Look (2008) [FLAC] | FunK / Dance


Стиль: FunK, Soul, Dance
Країна, місто: Україна, Київ
Сайти: Офіційний сайт
Видавець: Lavina Music
Виконавці:
Євген Філатов
Пісні:
    01. Introduction
    02. Magic Force
    03. If Time Has Gone
    04. What I Feel For You
    05. These Lines
    06. All I Wanna Do
    07. Spaceclub
    08. Keep That Funk (feat. Filosha)
    09. Never Felt The Same Again
    10. Interlude
    11. Waiting
    12. Heaven's Mystery
    Audiochecker

    AUDIOCHECKER v2.0 beta (build 457) - by Dester - [email protected]
    ~~~~~~~~~~~~~~~~~~~~~~~~~~~~~~~~~~

    Started at: четверг, 22. 11. 2012. - 0:27.04
    12 files found

    01 -===- D:\hurtom.com\The Maneken - «First Look» (2008) (FLAC)\01 The Maneken Introduction.flac
    Extracted successfully
    Conclusion: this track is CDDA with probability 100%
    Tempfile successfully deleted.

    02 -===- D:\hurtom.com\The Maneken - «First Look» (2008) (FLAC)\02 The Maneken Magic Force.flac
    Extracted successfully
    Conclusion: this track is CDDA with probability 100%
    Tempfile successfully deleted.

    03 -===- D:\hurtom.com\The Maneken - «First Look» (2008) (FLAC)\03 The Maneken If Time Has Gone.flac
    Extracted successfully
    Conclusion: this track is CDDA with probability 99%
    Tempfile successfully deleted.

    04 -===- D:\hurtom.com\The Maneken - «First Look» (2008) (FLAC)\04 The Maneken What I Feel For You.flac
    Extracted successfully
    Conclusion: this track is CDDA with probability 99%
    Tempfile successfully deleted.

    05 -===- D:\hurtom.com\The Maneken - «First Look» (2008) (FLAC)\05 The Maneken These Lines.flac
    Extracted successfully
    Conclusion: this track is CDDA with probability 100%
    Tempfile successfully deleted.

    06 -===- D:\hurtom.com\The Maneken - «First Look» (2008) (FLAC)\06 The Maneken All I Wanna Do.flac
    Extracted successfully
    Conclusion: this track is CDDA with probability 100%
    Tempfile successfully deleted.

    07 -===- D:\hurtom.com\The Maneken - «First Look» (2008) (FLAC)\07 The Maneken Spaceclub.flac
    Extracted successfully
    Conclusion: this track is CDDA with probability 100%
    Tempfile successfully deleted.

    08 -===- D:\hurtom.com\The Maneken - «First Look» (2008) (FLAC)\08 The Maneken Keep That Funk (feat. Filosha).flac
    Extracted successfully
    Conclusion: this track is CDDA with probability 100%
    Tempfile successfully deleted.

    09 -===- D:\hurtom.com\The Maneken - «First Look» (2008) (FLAC)\09 The Maneken Never Felt The Same Again.flac
    Extracted successfully
    Conclusion: this track is CDDA with probability 100%
    Tempfile successfully deleted.

    10 -===- D:\hurtom.com\The Maneken - «First Look» (2008) (FLAC)\10 The Maneken Interlude.flac
    Extracted successfully
    Conclusion: this track is CDDA with probability 87%
    Tempfile successfully deleted.

    11 -===- D:\hurtom.com\The Maneken - «First Look» (2008) (FLAC)\11 The Maneken Waiting.flac
    Extracted successfully
    Conclusion: this track is CDDA with probability 99%
    Tempfile successfully deleted.

    12 -===- D:\hurtom.com\The Maneken - «First Look» (2008) (FLAC)\12 The Maneken Heaven's Mystery.flac
    Extracted successfully
    Conclusion: this track is CDDA with probability 100%
    Tempfile successfully deleted.

    Finished at: четверг, 22. 11. 2012. - 0:31.48 (operation time: 0:04.43)
    Log

    Exact Audio Copy V1.0 beta 3 from 29. August 2011

    Отчёт EAC об извлечении, выполненном 22. ноября 2012, 0:21

    The Maneken / «First Look»

    Дисковод: ASUS DRW-2014S1T Adapter: 2 ID: 8

    Режим чтения : Достоверность
    Использование точного потока : Да
    Отключение кэша аудио : Да
    Использование указателей C2 : Нет

    Коррекция смещения при чтении : 0
    Способность читать области Lead-in и Lead-out : Нет
    Заполнение пропущенных сэмплов тишиной : Да
    Удаление блоков с тишиной в начале и конце : Нет
    При вычислениях CRC использовались нулевые сэмплы : Да
    Интерфейс : Встроенный Win32-интерфейс для Win NT/2000
    Обработка зазоров : Добавлено к предыдущему треку

    Выходной формат : Пользовательский кодировщик
    Выбранный битрейт : 128 kBit/s
    Качество : Высокий
    Добавление ID3-тега : Нет
    Утилита сжатия : C:\Program Files\Exact Audio Copy\Flac\flac.exe
    Дополнительные параметры : -V -8 -T "Genre=%genre%" -T "Artist=%artist%" -T "Title=%title%" -T "Album=%albumtitle%" -T "Date=%year%" -T "Tracknumber=%tracknr%" -T "Comment=%comment%" %source%

    TOC извлечённого CD

    Трек | Старт | Длительность | Начальный сектор | Конечный сектор
    ---------------------------------------------------------------------
    1 | 0:00.00 | 1:06.44 | 0 | 4993
    2 | 1:06.44 | 3:28.33 | 4994 | 20626
    3 | 4:35.02 | 4:33.27 | 20627 | 41128
    4 | 9:08.29 | 4:41.32 | 41129 | 62235
    5 | 13:49.61 | 3:48.63 | 62236 | 79398
    6 | 17:38.49 | 4:35.71 | 79399 | 100094
    7 | 22:14.45 | 4:51.10 | 100095 | 121929
    8 | 27:05.55 | 4:23.01 | 121930 | 141655
    9 | 31:28.56 | 4:31.57 | 141656 | 162037
    10 | 36:00.38 | 2:01.00 | 162038 | 171112
    11 | 38:01.38 | 5:27.50 | 171113 | 195687
    12 | 43:29.13 | 6:27.26 | 195688 | 224738

    Трек 1

    Имя файла D:\Documents and Settings\user\Рабочий стол\«»—0–\01 The Maneken Introduction.wav

    Длина предзазора 0:00:02.00

    Пиковый уровень 100.0 %
    Скорость извлечения 3.5 X
    Качество трека 100.0 %
    CRC теста E0B1D2FD
    CRC копии E0B1D2FD
    Копирование... OK

    Трек 2

    Имя файла D:\Documents and Settings\user\Рабочий стол\«»—0–\02 The Maneken Magic Force.wav

    Пиковый уровень 100.0 %
    Скорость извлечения 5.0 X
    Качество трека 100.0 %
    CRC теста F221324B
    CRC копии F221324B
    Копирование... OK

    Трек 3

    Имя файла D:\Documents and Settings\user\Рабочий стол\«»—0–\03 The Maneken If Time Has Gone.wav

    Пиковый уровень 100.0 %
    Скорость извлечения 5.8 X
    Качество трека 100.0 %
    CRC теста 5C0BAEEC
    CRC копии 5C0BAEEC
    Копирование... OK

    Трек 4

    Имя файла D:\Documents and Settings\user\Рабочий стол\«»—0–\04 The Maneken What I Feel For You.wav

    Пиковый уровень 100.0 %
    Скорость извлечения 6.3 X
    Качество трека 100.0 %
    CRC теста 1545E530
    CRC копии 1545E530
    Копирование... OK

    Трек 5

    Имя файла D:\Documents and Settings\user\Рабочий стол\«»—0–\05 The Maneken These Lines.wav

    Пиковый уровень 100.0 %
    Скорость извлечения 6.4 X
    Качество трека 100.0 %
    CRC теста 03CD5FC1
    CRC копии 03CD5FC1
    Копирование... OK

    Трек 6

    Имя файла D:\Documents and Settings\user\Рабочий стол\«»—0–\06 The Maneken All I Wanna Do.wav

    Пиковый уровень 99.9 %
    Скорость извлечения 6.9 X
    Качество трека 100.0 %
    CRC теста 0C759290
    CRC копии 0C759290
    Копирование... OK

    Трек 7

    Имя файла D:\Documents and Settings\user\Рабочий стол\«»—0–\07 The Maneken Spaceclub.wav

    Пиковый уровень 100.0 %
    Скорость извлечения 7.8 X
    Качество трека 100.0 %
    CRC теста D0788CC8
    CRC копии D0788CC8
    Копирование... OK

    Трек 8

    Имя файла D:\Documents and Settings\user\Рабочий стол\«»—0–\08 The Maneken Keep That Funk (feat. Filosha).wav

    Пиковый уровень 100.0 %
    Скорость извлечения 8.1 X
    Качество трека 100.0 %
    CRC теста 2952E86B
    CRC копии 2952E86B
    Копирование... OK

    Трек 9

    Имя файла D:\Documents and Settings\user\Рабочий стол\«»—0–\09 The Maneken Never Felt The Same Again.wav

    Пиковый уровень 100.0 %
    Скорость извлечения 8.5 X
    Качество трека 100.0 %
    CRC теста 22A62A5D
    CRC копии 22A62A5D
    Копирование... OK

    Трек 10

    Имя файла D:\Documents and Settings\user\Рабочий стол\«»—0–\10 The Maneken Interlude.wav

    Пиковый уровень 100.0 %
    Скорость извлечения 7.5 X
    Качество трека 100.0 %
    CRC теста 0A4DBB14
    CRC копии 0A4DBB14
    Копирование... OK

    Трек 11

    Имя файла D:\Documents and Settings\user\Рабочий стол\«»—0–\11 The Maneken Waiting.wav

    Пиковый уровень 100.0 %
    Скорость извлечения 8.3 X
    Качество трека 99.9 %
    CRC теста B7C518DB
    CRC копии B7C518DB
    Копирование... OK

    Трек 12

    Имя файла D:\Documents and Settings\user\Рабочий стол\«»—0–\12 The Maneken Heaven's Mystery.wav

    Пиковый уровень 100.0 %
    Скорость извлечения 9.8 X
    Качество трека 100.0 %
    CRC теста D9579B24
    CRC копии D9579B24
    Копирование... OK

    Ошибок не произошло

    Конец отчёта

    ==== Контрольная сумма отчёта A8C91945D23E245A2F55C698EB5E22767ACF647756DC69AA6089FF8E073D5A04 ====

Тривалість: 00:49:52
Мова: англійська
Аудіо-кодек: FLAC
Бітрейт: 911 кб/с
Джерело: ріп із власного CD
Додаткова інформація:
The Maneken – проект, створений композитором, саундпродюсером, мульти-інструменталістом та діджеєм Євгеном Філатовим.
Він завжди прагнув до експериментів. Тому підтвердження його унікальне шоу, яке він створює на незвичайному інструменті "interactive media table".
Imtable – музичний інструмент нового покоління. Семплер c чутливим інтерфейсом керує одночасно звуком, відео та світлом.
The Maneken став першим артистом на пострадянському просторі, який використовував
у своїх виступах цей унікальний інструмент майбутнього.


Якщо Ви справді бажаєте підтримати українське - після прослуховування, якщо музика вам сподобалась, придбайте ліцензійний диск. Підтримаймо вітчизняних виконавців!


Срібний реліз (на рейтинг впливає 50% завантаженого)
 Трекер:    Зареєстрований   

Завантажити / скачати українську музику



відео для новачків



 Зареєстрований:   2012-11-22 01:33
 Розмір:   325 MB 
 Оцінка музики:   8.7/10 (Голосів: 7)
   
Klementij 
Новенький


З нами з: 15.01.10
Востаннє: 05.07.17
Повідомлень: 11

2013-04-07 19:10  
Класний саунд. Дякую)
Ваш часовий пояс: GMT + 2 Години

Нова тема   Відповісти