Зачароване королівство / Tin Man (2007) Remux 1080p Ukr/Eng

Нові коментарі

Нова тема   Відповісти
Автор Повідомлення
urij546724 
Відео Гуртом - фільмокрай
Відео Гуртом - фільмокрай


З нами з: 16.03.10
Востаннє: 14.08.19
Повідомлень: 5522

2012-11-19 13:37  
Зачароване королівство / Tin Man (2007) Remux 1080p Ukr/Eng

Зачароване королівство / Tin Man (2007) Remux 1080p Ukr/Eng
Слогани:
«Follow a new yellow brick road.»


Жанр: пригодницький, фентезі, фантастика, вестерн
Країна: США



Кіностудія / кінокомпанія: Imagiquest Entertainment, RHI Entertainment, Reunion Pictures
Режисер: Нік Віллінг (Nick Willing)
Актори: Зої Дешанель (Zooey Deschanel), Алан Каммінг (Alan Cumming), Ніл МакДонаф (Neal McDonough), Кетлін Робертсон (Kathleen Robertson), Рауль Трухільо (Raoul Trujillo), Каллум Кіт Ренні (Callum Keith Rennie), Річард Дрейфус (Richard Dreyfuss)...

Сюжет:
Діджей була простою студенткою, яка працює в кафе на півставки і вічно відчуває себе не на своєму місці. Але її життя змінилося докорінно після того, як їй почали снитися фантастичні сни і дивні люди напали на її сім'ю з метою викрасти дівчину. Щоб врятувати їй життя, батьки кинули її в торнадо, яке перенесло діджей в потойбічний світ, повний темної магії і загадкових істот. Тепер у компанії своїх нових приятелів вона намагається відшукати свою справжню матір...


Бюджет: 19 000 000 доларів
Перелік серій:
1) Into the Storm
2) Search for the Emerald
3) Tin Man
Назва фільму у інших країнах
A Bádogember
Угорщина


Deux princesses pour un royaume
Франція


I katastrofi tou Oz
Греція


Ritorno al mondo di Oz
Італія


Tin Man - O Vingador de Oz
Португалія


Железный человек / Заколдованное королевство
Росія
Media info
Серія 1
General
ID : 1 (0x1)
Complete name : D:\Tin Man (2007) [Season 1] [ukr-eng] Remux [Hurtom] by urij546724\Tin Man (Ep.1) (2007) [ukr_eng_DTS_5.1] Remux [Hurtom] by urij546724.m2ts
Format : BDAV
Format/Info : Blu-ray Video
File size : 15.7 GiB
Duration : 1h 31mn
Overall bit rate mode : Variable
Overall bit rate : 24.5 Mbps
Maximum Overall bit rate : 35.5 Mbps

Video
ID : 4113 (0x1011)
Menu ID : 1 (0x1)
Format : AVC
Format/Info : Advanced Video Codec
Format profile : [email protected]
Format settings, CABAC : Yes
Format settings, ReFrames : 4 frames
Format settings, GOP : M=3, N=24
Codec ID : 27
Duration : 1h 31mn
Bit rate mode : Variable
Bit rate : 19.4 Mbps
Maximum bit rate : 36.0 Mbps
Width : 1 920 pixels
Height : 1 080 pixels
Display aspect ratio : 16:9
Frame rate : 23.976 fps
Standard : NTSC
Color space : YUV
Chroma subsampling : 4:2:0
Bit depth : 8 bits
Scan type : Progressive
Bits/(Pixel*Frame) : 0.391
Stream size : 12.4 GiB (79%)
Color primaries : BT.709-5, BT.1361, IEC 61966-2-4, SMPTE RP177
Transfer characteristics : BT.709-5, BT.1361
Matrix coefficients : BT.709-5, BT.1361, IEC 61966-2-4 709, SMPTE RP177

Audio #1
ID : 4352 (0x1100)
Menu ID : 1 (0x1)
Format :
Format/Info : Digital Theater Systems
Codec ID : 130
Duration : 1h 31mn
Bit rate mode : Constant
Bit rate : 1 510 Kbps
Channel(s) : 6 channels
Channel positions : Front: L C R, Side: L R, LFE
Sampling rate : 48.0 KHz
Bit depth : 24 bits
Compression mode : Lossy
Delay relative to video : 83ms
Stream size : 989 MiB (6%)
Language : Ukrainian

Audio #2
ID : 4353 (0x1101)
Menu ID : 1 (0x1)
Format :
Format/Info : Digital Theater Systems
Format profile : HRA / Core
Muxing mode : Stream extension
Codec ID : 133
Duration : 1h 31mn
Bit rate mode : Constant
Bit rate : 2 560 Kbps / 1 510 Kbps
Channel(s) : 6 channels
Channel positions : Front: L C R, Side: L R, LFE
Sampling rate : 48.0 KHz
Bit depth : 24 bits
Compression mode : Lossy
Delay relative to video : 83ms
Stream size : 1.64 GiB (10%)
Language : English
Серія 2
General
ID : 1 (0x1)
Complete name : D:\Tin Man (2007) [Season 1] [ukr-eng] Remux [Hurtom] by urij546724\Tin Man (Ep.2) (2007) [ukr_eng_DTS_5.1] Remux [Hurtom] by urij546724.m2ts
Format : BDAV
Format/Info : Blu-ray Video
File size : 15.0 GiB
Duration : 1h 27mn
Overall bit rate mode : Variable
Overall bit rate : 24.5 Mbps
Maximum Overall bit rate : 35.5 Mbps

Video
ID : 4113 (0x1011)
Menu ID : 1 (0x1)
Format : AVC
Format/Info : Advanced Video Codec
Format profile : [email protected]
Format settings, CABAC : Yes
Format settings, ReFrames : 4 frames
Format settings, GOP : M=3, N=24
Codec ID : 27
Duration : 1h 27mn
Bit rate mode : Variable
Bit rate : 19.4 Mbps
Maximum bit rate : 36.0 Mbps
Width : 1 920 pixels
Height : 1 080 pixels
Display aspect ratio : 16:9
Frame rate : 23.976 fps
Standard : NTSC
Color space : YUV
Chroma subsampling : 4:2:0
Bit depth : 8 bits
Scan type : Progressive
Bits/(Pixel*Frame) : 0.391
Stream size : 11.9 GiB (79%)
Color primaries : BT.709-5, BT.1361, IEC 61966-2-4, SMPTE RP177
Transfer characteristics : BT.709-5, BT.1361
Matrix coefficients : BT.709-5, BT.1361, IEC 61966-2-4 709, SMPTE RP177

Audio #1
ID : 4352 (0x1100)
Menu ID : 1 (0x1)
Format :
Format/Info : Digital Theater Systems
Codec ID : 130
Duration : 1h 27mn
Bit rate mode : Constant
Bit rate : 1 510 Kbps
Channel(s) : 6 channels
Channel positions : Front: L C R, Side: L R, LFE
Sampling rate : 48.0 KHz
Bit depth : 24 bits
Compression mode : Lossy
Stream size : 947 MiB (6%)
Language : Ukrainian

Audio #2
ID : 4353 (0x1101)
Menu ID : 1 (0x1)
Format :
Format/Info : Digital Theater Systems
Format profile : HRA / Core
Muxing mode : Stream extension
Codec ID : 133
Duration : 1h 27mn
Bit rate mode : Constant
Bit rate : 2 560 Kbps / 1 510 Kbps
Channel(s) : 6 channels
Channel positions : Front: L C R, Side: L R, LFE
Sampling rate : 48.0 KHz
Bit depth : 24 bits
Compression mode : Lossy
Delay relative to video : 83ms
Stream size : 1.57 GiB (10%)
Language : English
Серія 3
General
ID : 1 (0x1)
Complete name : D:\Tin Man (2007) [Season 1] [ukr-eng] Remux [Hurtom] by urij546724\Tin Man (Ep.3) (2007) [ukr_eng_DTS_5.1] Remux [Hurtom] by urij546724.m2ts
Format : BDAV
Format/Info : Blu-ray Video
File size : 15.1 GiB
Duration : 1h 28mn
Overall bit rate mode : Variable
Overall bit rate : 24.5 Mbps
Maximum Overall bit rate : 35.5 Mbps

Video
ID : 4113 (0x1011)
Menu ID : 1 (0x1)
Format : AVC
Format/Info : Advanced Video Codec
Format profile : [email protected]
Format settings, CABAC : Yes
Format settings, ReFrames : 4 frames
Format settings, GOP : M=3, N=24
Codec ID : 27
Duration : 1h 28mn
Bit rate mode : Variable
Bit rate : 19.4 Mbps
Maximum bit rate : 36.0 Mbps
Width : 1 920 pixels
Height : 1 080 pixels
Display aspect ratio : 16:9
Frame rate : 23.976 fps
Standard : NTSC
Color space : YUV
Chroma subsampling : 4:2:0
Bit depth : 8 bits
Scan type : Progressive
Bits/(Pixel*Frame) : 0.391
Stream size : 12.0 GiB (79%)
Color primaries : BT.709-5, BT.1361, IEC 61966-2-4, SMPTE RP177
Transfer characteristics : BT.709-5, BT.1361
Matrix coefficients : BT.709-5, BT.1361, IEC 61966-2-4 709, SMPTE RP177

Audio #1
ID : 4352 (0x1100)
Menu ID : 1 (0x1)
Format :
Format/Info : Digital Theater Systems
Codec ID : 130
Duration : 1h 28mn
Bit rate mode : Constant
Bit rate : 1 510 Kbps
Channel(s) : 6 channels
Channel positions : Front: L C R, Side: L R, LFE
Sampling rate : 48.0 KHz
Bit depth : 24 bits
Compression mode : Lossy
Stream size : 956 MiB (6%)
Language : Ukrainian

Audio #2
ID : 4353 (0x1101)
Menu ID : 1 (0x1)
Format :
Format/Info : Digital Theater Systems
Format profile : HRA / Core
Muxing mode : Stream extension
Codec ID : 133
Duration : 1h 28mn
Bit rate mode : Constant
Bit rate : 2 560 Kbps / 1 510 Kbps
Channel(s) : 6 channels
Channel positions : Front: L C R, Side: L R, LFE
Sampling rate : 48.0 KHz
Bit depth : 24 bits
Compression mode : Lossy
Delay relative to video : 167ms
Stream size : 1.58 GiB (10%)
Language : English
Тривалість: 01:31:32, 01:27:42, 01:28:31
Якість: Remux 1080p
Відео:
кодек:
розмір кадру: 1920 х 1080
бітрейт: 19,4 Мб/с

Аудіо #1:
мова: українська
переклад: багатоголосий закадровий
кодек: 5.1
бітрейт: 1510 кб/с
запис з каналу: Студія "Старий Майстер" на замовлення Аврора Дистрибушн

Аудіо #2:
мова: англійська
переклад: оригінал
кодек: -HD MA 5.1
бітрейт: 2559 кб/с

Скріншоти:







Реліз створено: &

Особиста оцінка: Ще не дивився.



Золотий реліз (завантажене не впливає на рейтинг)
 Трекер:    Зареєстрований   

Завантажити / скачати серіал українською



відео для новачків



 Зареєстрований:   2012-11-19 19:23
 Розмір:   45.8 GB 
 Оцінка серіалу:   7.2/10 (Голосів: 10)
 Прохання залишати коментарі і не тікати з роздачі.
   
Ігор Вінський 
VIP


З нами з: 17.03.11
Востаннє: 18.08.19
Повідомлень: 417

2012-11-20 09:44  
Чудовий міні-серіял. У 2009 дивився його по Новому каналу. Назва була не "Зачароване королівство" а "Залізна людина". Навіть записував його. Зої Дешанель чимось схожа на Люсі Ловлес (Ксена), тож до проведення інтернету думав що то донька Люсі Ловлес. Але все-таки схожість є.
rakab 
Свій


З нами з: 02.08.09
Востаннє: 15.08.19
Повідомлень: 89

2012-11-20 11:02  
А ріп планується кимось до роздачі?
vadim_doom 
Частий відвідувач


З нами з: 20.11.10
Востаннє: 27.06.19
Повідомлень: 35

2012-11-20 13:47  
Чубака)
kolomyja 
Свій


З нами з: 27.01.11
Востаннє: 17.08.19
Повідомлень: 51

2012-11-20 14:00  
А плануєтья? Бо у мене на компі усього 14 гектарів, хотілось би подивитись, а на рашен не хочу дивитись з принципу...
Ваш часовий пояс: GMT + 2 Години

Нова тема   Відповісти