Легенди нічної варти / Legend of the Guardians: The Owls of Ga’Hoole (2010) 720p Ukr/Eng | sub Eng

Нові коментарі

Нова тема   Відповісти
Автор Повідомлення
pyatachok 
Координатор літератури


З нами з: 30.01.10
Востаннє: 16.08.17
Повідомлень: 1331

2012-11-17 02:17  
Легенди нічної варти / Legend of the Guardians: The Owls of Ga’Hoole (2010) 720p Ukr/Eng | sub Eng

Легенди нічної варти / Legend of the Guardians: The Owls of Ga’Hoole (2010) 720p Ukr/Eng | sub Eng


Жанр: фентезі, пригодницький, сімейний
Країна: США, Австралія



Кіностудія / кінокомпанія: Warner Bros. Pictures, Village Roadshow Pictures, Animal Logic
Режисер: Зак Снайдер
Актори: Джим Стерджесс, Джоел Едгертон, Хьюго Вівінг, Едріенн Дефар, Річард Роксбург, Девід Венем, Хелен Міррен, Міріам Марголіс

Сюжет:
Світом, у якому вже не залишилося людей, правлять сови ... добрі ... злі ... як і завжди! У чарівному лісі - королівстві сов Тіто - на Великому Дереві Ґа `Хул, де розумні сови живуть у гармонії, наступають похмурі часи. Королівство піддається страшній небезпеці з боку сусідніх жорстоких правителів, і ця небезпека загрожує знищити звичну світобудову.


Тривалість: 01:36:47
Якість: 720p
Відео:
кодек:
розмір кадру: 1280x544
бітрейт: 5678 кб/с

Аудіо # 1:
мова: українська
переклад: професійний дубльований
кодек: 5.1
бітрейт: 640 кб/с

Аудіо # 2:
мова: англійська
переклад: оригінал
кодек: 5.1
бітрейт: 1536 кб/с

Джерело озвучення:


Субтитри:
мова: англійська
тип: програмні (м'які)
формат: *.srt
Info
General
Unique ID : 203750652463868927858877734741879663573 (0x9948F2C245B6283F8D237A2D8F49ABD5)
Complete name : D:\Hurtom\Legend of the Guardians. The Owls of Ga’Hoole (2010) BDRip720p [Ukr.Eng] [Hurtom].
Format :
Format version : Version 2
File size : 5.29 GiB
Duration : 1h 36mn
Overall bit rate : 7 827 Kbps
Movie name : Legend of the Guardians: The Owls of Ga’Hoole (2010)
Encoded date : UTC 2012-11-17 06:31:10
Writing application : mkvmerge v5.7.0 ('The Whirlwind') built on Jul 8 2012 20:08:51
Writing library : libebml v1.2.3 + libmatroska v1.3.0

Video
ID : 1
Format : AVC
Format/Info : Advanced Video Codec
Format profile : High@L4.1
Format settings, CABAC : Yes
Format settings, ReFrames : 11 frames
Codec ID : V_MPEG4/ISO/AVC
Duration : 1h 36mn
Bit rate : 5 678 Kbps
Width : 1 280 pixels
Height : 544 pixels
Display aspect ratio : 2.35:1
Frame rate mode : Constant
Frame rate : 23.976 fps
Color space : YUV
Chroma subsampling : 4:2:0
Bit depth : 8 bits
Scan type : Progressive
Bits/(Pixel*Frame) : 0.340
Stream size : 3.73 GiB (71%)
Writing library : core 112 r1834 a51816a
Encoding settings : cabac=1 / ref=11 / deblock=1:-3:-3 / analyse=0x3:0x113 / me=tesa / subme=10 / psy=1 / psy_rd=0.80:0.00 / mixed_ref=1 / me_range=16 / chroma_me=1 / trellis=2 / 8x8dct=1 / cqm=0 / deadzone=21,11 / fast_pskip=0 / chroma_qp_offset=-2 / threads=12 / sliced_threads=0 / nr=0 / decimate=0 / interlaced=0 / constrained_intra=0 / bframes=6 / b_pyramid=2 / b_adapt=2 / b_bias=0 / direct=3 / weightb=1 / open_gop=0 / weightp=2 / keyint=250 / keyint_min=23 / scenecut=40 / intra_refresh=0 / rc=2pass / mbtree=0 / bitrate=5678 / ratetol=1.0 / qcomp=0.60 / qpmin=0 / qpmax=51 / qpstep=4 / cplxblur=20.0 / qblur=0.5 / ip_ratio=1.40 / pb_ratio=1.30 / aq=1:1.00 / zones=778,1138,b=2.5/1295,1425,b=2.5/8239,8403,b=2.5/11355,11650,b=2.5/12476,12564,b=2.5/13881,15408,b=2.5/16096,17498,b=2.5/35523,35732,b=2.5/40990,41028,b=2.5/54476,54589,b=2.5/54756,54846,b=2.5/54959,55057,b=2.5/55151,55253,b=2.5/55400,55662,b=2.5/99970,100102,b=2.5/100342,100890,b=2.5/111212,111871,b=2.5/121148,121254,b=2.5
Language : English
Default : No
Forced : No

Audio #1
ID : 2
Format : AC-3
Format/Info : Audio Coding 3
Mode extension : CM (complete main)
Format settings, Endianness : Big
Codec ID : A_AC3
Duration : 1h 36mn
Bit rate mode : Constant
Bit rate : 640 Kbps
Channel(s) : 6 channels
Channel positions : Front: L C R, Side: L R, LFE
Sampling rate : 48.0 KHz
Bit depth : 16 bits
Compression mode : Lossy
Stream size : 443 MiB (8%)
Title : Ukr Dub Cee
Language : Ukrainian
Default : No
Forced : No

Audio #2
ID : 3
Format :
Format/Info : Digital Theater Systems
Codec ID : A_DTS
Duration : 1h 36mn
Bit rate mode : Constant
Bit rate : 1 510 Kbps
Channel(s) : 6 channels
Channel positions : Front: L C R, Side: L R, LFE
Sampling rate : 48.0 KHz
Bit depth : 24 bits
Compression mode : Lossy
Stream size : 1.02 GiB (19%)
Title : Eng BD Core
Language : English
Default : No
Forced : No

Text
ID : 4
Format : UTF-8
Codec ID : S_TEXT/UTF8
Codec ID/Info : UTF-8 Plain Text
Language : English
Default : No
Forced : No

Menu
00:00:00.000 : en:00:00:00.000
00:10:52.026 : en:00:10:52.026
00:20:10.376 : en:00:20:10.376
00:30:07.097 : en:00:30:07.097
00:40:01.274 : en:00:40:01.274
00:49:57.786 : en:00:49:57.786
01:00:34.130 : en:01:00:34.130
01:09:45.098 : en:01:09:45.098
01:18:58.108 : en:01:18:58.108
01:28:19.753 : en:01:28:19.753
Скріншоти





Джерело: &


 Трекер:    Зареєстрований   

Завантажити / скачати мультфільм українською



відео для новачків



 Зареєстрований:   2012-11-17 10:01
 Розмір:   5.29 GB 
 Оцінка мультфільму:   9.2/10 (Голосів: 17)
   
bot 
робот


З нами з: 30.09.07
Востаннє: 26.05.05
Повідомлень: 17362

2012-11-17 02:17  
Тему перенесено з Мультфільми в HD до форуму Анонси релізів від Відео Гуртом


pyatachok

|CJ| 
Новенький


З нами з: 29.09.09
Востаннє: 21.07.17
Повідомлень: 13

2012-11-17 02:27  
А коли чекати?
pyatachok 
Координатор літератури


З нами з: 30.01.10
Востаннє: 16.08.17
Повідомлень: 1331

2012-11-17 02:29  
Завтра зранку.
bot 
робот


З нами з: 30.09.07
Востаннє: 26.05.05
Повідомлень: 17362

2012-11-17 09:59  
Тему перенесено з Анонси релізів від Відео Гуртом до форуму Мультфільми в HD


pyatachok

ultracrip 
Новенький


З нами з: 15.04.14
Востаннє: 16.08.17
Повідомлень: 21

2014-08-19 23:05  
До речі чудовий реліз. Дякую ratbol за рекомендацію. Якість на рівні!!!! Передивилися в HD ніби вперше... рекомендую!!!
Ваш часовий пояс: GMT + 2 Години

Нова тема   Відповісти