Місія "Різдвяний порятунок" 3D / Arthur Christmas 3D [Half-OU] (2011) 1080р Ukr/Eng | Sub Eng

Нові коментарі

Нова тема   Відповісти
Автор Повідомлення
pyatachok 
Координатор літератури


З нами з: 30.01.10
Востаннє: 24.08.17
Повідомлень: 1331

2012-11-12 23:49  
Місія "Різдвяний порятунок" 3D / Arthur Christmas 3D [Half-OU] (2011) 1080р Ukr/Eng | Sub Eng


Місія "Різдвяний порятунок" 3D / Arthur Christmas 3D [Half-OU] (2011) 1080р Ukr/Eng | Sub Eng


Жанр: анімація, комедія, драма
Країна: Велика Британія, США



Кіностудія / кінокомпанія: Aardman Animations, Sony Pictures Animation; мейджор – Buena Vista Sony Pictures Releasing (BVSPR)
Режисер: Сара Сміт
Актори: Джеймс МакЕвой, Х’ю Лорі, Білл Наї, Джим Броадбент, Імельда Стонтон

Сюжет:
Ми давно вже все знаємо про Санта Клауса (Святого Миколая), незрозуміло тільки, як він встигає: приготувати усі ці іграшки та цукерки, побувати на всіх дитячих святах, та ще й за одну ніч розвезти подарунки до кожної оселі. Розумна відповідь може бути лише одна - десь на Північному полюсі, десь під безмежною сніговою пустелею має бути величезний технологічний центр, де ельфи розробляють сценарій Різдва та на автоматизованому виробництві готують свято. Страшно подумати, що станеться, якщо система дасть збій...


Тривалість: 01:37:32
Якість: 1080р
Відео:
кодек:
розмір кадру: 1920 x 1080
бітрейт: 9 782 кб/с
формат 3D: вертикальна стереопара

Аудіо # 1:
мова: українська
переклад: професійний дубльований
кодек: 5.1
бітрейт: 640 кб/с
Про дубляж
Фільм надано компанією Columbia Pictures
Дубльовано студією LeDoyen на замовлення B&H Film Distribution
Переклад: Олекси Негребецького
Режисер дубляжу: Олекса Негребецький
Звукорежисер: Михайло Угрин
Координатор дубляжу: Ольга Боєва
Роді дублювали: Станіслав Мельник, Валерій Легін, Ганна Соболєва, Дмитро Гаврилов, Анатолій Пашнін, Валентина Сова, Дмитро Вікулов та інші.
Аудіо # 2:
мова: англійська
переклад: оригінал
кодек: 5.1
бітрейт: 1510 кб/с

Джерело озвучення:


Субтитри:
мова: англійська
тип: програмні (м'які)
формат: *.srt

Субтитри:
мова: англійська SDH
тип: програмні (м'які)
формат: *.srt

Відео виконане в форматі 3D! Для перегляду потрібні спеціальні окуляри та стереоплеєр або телевізор з підтримкою технології 3D!

Інструкції щодо перегляду відео у форматі 3D
Info
General
Unique ID : 174992483074708931096497995318379987833 (0x83A65389AED90FB6AB184D74FD38C379)
Complete name : D:\Hurtom\Arthur Christmas (2011) [ukr,eng][sub Eng] 1080p [Hurtom].
Format :
Format version : Version 3 / Version 2
File size : 8.30 GiB
Duration : 1h 37mn
Overall bit rate : 12.2 Mbps
Movie name : Arthur Christmas (2011)
Encoded date : UTC 2012-11-12 20:04:25
Writing application : mkvmerge v5.7.0 ('The Whirlwind') built on Jul 8 2012 20:08:51
Writing library : libebml v1.2.3 + libmatroska v1.3.0

Video
ID : 1
Format : AVC
Format/Info : Advanced Video Codec
Format profile : [email protected]
MultiView_Count : 2
MultiView_Layout : Top-Bottom (left eye first)
Format settings, CABAC : Yes
Format settings, ReFrames : 4 frames
Codec ID : V_MPEG4/ISO/AVC
Duration : 1h 37mn
Bit rate : 9 782 Kbps
Width : 1 920 pixels
Height : 1 080 pixels
Display aspect ratio : 16:9
Frame rate mode : Constant
Frame rate : 23.976 fps
Color space : YUV
Chroma subsampling : 4:2:0
Bit depth : 8 bits
Scan type : Progressive
Bits/(Pixel*Frame) : 0.197
Stream size : 6.67 GiB (80%)
Writing library : core 125 r2208 d9d2288
Encoding settings : cabac=1 / ref=4 / deblock=1:-3:-3 / analyse=0x3:0x113 / me=umh / subme=10 / psy=1 / psy_rd=1.00:0.15 / mixed_ref=1 / me_range=32 / chroma_me=1 / trellis=2 / 8x8dct=1 / cqm=0 / deadzone=21,11 / fast_pskip=1 / chroma_qp_offset=-3 / threads=18 / lookahead_threads=3 / sliced_threads=0 / nr=0 / decimate=1 / interlaced=0 / bluray_compat=0 / constrained_intra=0 / bframes=6 / b_pyramid=2 / b_adapt=1 / b_bias=0 / direct=3 / weightb=1 / open_gop=0 / weightp=2 / keyint=250 / keyint_min=23 / scenecut=40 / intra_refresh=0 / rc_lookahead=40 / rc=crf / mbtree=1 / crf=16.0 / qcomp=0.60 / qpmin=10 / qpmax=69 / qpstep=4 / vbv_maxrate=40000 / vbv_bufsize=30000 / crf_max=0.0 / nal_hrd=none / ip_ratio=1.40 / aq=1:1.00
Default : No
Forced : No

Audio #1
ID : 2
Format : AC-3
Format/Info : Audio Coding 3
Mode extension : CM (complete main)
Format settings, Endianness : Big
Codec ID : A_AC3
Duration : 1h 37mn
Bit rate mode : Constant
Bit rate : 640 Kbps
Channel(s) : 6 channels
Channel positions : Front: L C R, Side: L R, LFE
Sampling rate : 48.0 KHz
Bit depth : 16 bits
Compression mode : Lossy
Stream size : 447 MiB (5%)
Title : 5.1 @ 640 kbps - Дубльований, Blu-ray
Language : Ukrainian
Default : No
Forced : No

Audio #2
ID : 3
Format :
Format/Info : Digital Theater Systems
Codec ID : A_DTS
Duration : 1h 37mn
Bit rate mode : Constant
Bit rate : 1 510 Kbps
Channel(s) : 6 channels
Channel positions : Front: L C R, Side: L R, LFE
Sampling rate : 48.0 KHz
Bit depth : 16 bits
Compression mode : Lossy
Delay relative to video : 11ms
Stream size : 1.03 GiB (12%)
Title : 5.1 @ 1536 kbps
Language : English
Default : No
Forced : No

Text #1
ID : 4
Format : UTF-8
Codec ID : S_TEXT/UTF8
Codec ID/Info : UTF-8 Plain Text
Language : English
Default : No
Forced : No

Text #2
ID : 5
Format : UTF-8
Codec ID : S_TEXT/UTF8
Codec ID/Info : UTF-8 Plain Text
Language : English
Default : No
Forced : No

Menu
00:00:00.000 : en:00:00:00.000
00:04:37.777 : en:00:04:37.777
00:08:52.615 : en:00:08:52.615
00:16:27.153 : en:00:16:27.153
00:19:48.729 : en:00:19:48.729
00:23:23.819 : en:00:23:23.819
00:28:59.321 : en:00:28:59.321
00:33:28.924 : en:00:33:28.924
00:39:22.277 : en:00:39:22.277
00:44:45.558 : en:00:44:45.558
00:52:49.375 : en:00:52:49.375
00:58:48.942 : en:00:58:48.942
01:06:00.290 : en:01:06:00.290
01:13:49.342 : en:01:13:49.342
01:20:36.957 : en:01:20:36.957
01:29:48.174 : en:01:29:48.174
Скріншоти


Джерело:


 Трекер:    Зареєстрований   

Завантажити / скачати мультфільм українською



відео для новачків



 Зареєстрований:   2012-11-12 23:49
 Розмір:   8.3 GB 
 Оцінка мультфільму:   10/10 (Голосів: 8)
   
Bohdan237 
Відео Гуртом - фільмокрай
Відео Гуртом - фільмокрай


З нами з: 13.02.12
Востаннє: 24.08.17
Повідомлень: 465

2012-11-13 00:01  
pyatachok написано:
Місія "Різдвяний порятунок" / Arthur Christmas 3D [OverUnder] (2011) 1080р Ukr/Eng | sub 2xEng

Краще написати BD3DRip - так називають 3д ріпи!

pyatachok 
Координатор літератури


З нами з: 30.01.10
Востаннє: 24.08.17
Повідомлень: 1331

2012-11-13 00:05  
Bohdan237
Я такого ще не чув, та й, впринципі, не бачив, тому міняти не буду. Нехай гляне модератор ХД.

Bohdan237 
Відео Гуртом - фільмокрай
Відео Гуртом - фільмокрай


З нами з: 13.02.12
Востаннє: 24.08.17
Повідомлень: 465

2012-11-13 23:54  
Це має несуттєве значення, але на 3д трекерах пишуть саме так!
ratbol 
Модератор HD


З нами з: 03.02.09
Востаннє: 20.08.17
Повідомлень: 1083

2012-11-14 00:01  
У нас так не прийнято.
Ваш часовий пояс: GMT + 2 Години

Нова тема   Відповісти