Zymosis - Between Two Points (2012) [FLAC] | Ambient / Chillout

Нові коментарі

Нова тема   Відповісти
Автор Повідомлення
ssTAss 
Модератор музики


З нами з: 05.07.08
Востаннє: 18.08.17
Повідомлень: 11769

2012-11-11 20:41  
Zymosis - Between Two Points (2012) [FLAC] | Ambient / Chillout

Zymosis - Between Two Points (2012) [FLAC] | Ambient / Chillout


Стиль: Electronic, Psydub, Ambient, Chillout
Країна, місто: Україна, Київ
Сайти: Офіційний сайт
Видавець: Altar Records
Виконавці:
Dmitriy Likhachev – композитор, аранжування
Alexey Ivchenko – електрогітара, акустична гітара
Olga Troyan – вокал
Viktoriya Grigo - вокал
Пісні:
    1 - One Day (Written & produced by Dmitriy Likhachev)
    2 – Awakening (Written & produced by Dmitriy Likhachev and Alexey Ivchenko)
    3 - Usual Miracle (Micky Noise & Alkan Rmx) (Written & produced by Dmitriy Likhachev, remixed by Micky Noise & Alkan)
    4 - So far, so close (Zymosis & Seamoon) (Written & produced by Dmitriy Likhachev and Simon Neumann)
    5 - Path of Nocturnal (Written & produced by Dmitriy Likhachev)
    6 - She (Written & produced by Dmitriy Likhachev)
    7 – The Unexpected Visitor (Zymosis rmx) (Written & produced by Yaniv Shulman and Omri Harpaz, remixed by Dmitriy Likhachev)
    8 - I'll be waiting for you (Zymosis & Zero Cult) (Written & produced by Dmitriy Likhachev and Emil Ilyayev)
    9 - Quiet Sadness (Written & produced by Dmitriy Likhachev, Alexey Ivchenko, Olga Troyan and Viktoriya Grigo)
    10 - Forgotten Days (Written & produced by Dmitriy Likhachev)
log
Exact Audio Copy V1.0 beta 3 from 29. August 2011

EAC extraction logfile from 1. November 2012, 16:59

Zymosis / Between Two Points

Used drive : SONY DVD RW DRU-820A Adapter: 0 ID: 1

Read mode : Secure
Utilize accurate stream : Yes
Defeat audio cache : Yes
Make use of C2 pointers : No

Read offset correction : 102
Overread into Lead-In and Lead-Out : No
Fill up missing offset samples with silence : Yes
Delete leading and trailing silent blocks : No
Null samples used in CRC calculations : Yes
Used interface : Native Win32 interface for Win NT & 2000
Gap handling : Appended to previous track

Used output format : User Defined Encoder
Selected bitrate : 896 kBit/s
Quality : High
Add ID3 tag : No
Command line compressor : C:\Program Files (x86)\Exact Audio Copy\Flac\flac.exe
Additional command line options : -8 -V -T "ARTIST=%artist%" -T "TITLE=%title%" -T "ALBUM=%albumtitle%" -T "DATE=%year%" -T "TRACKNUMBER=%tracknr%" -T "GENRE=%genre%" -T "PERFORMER=%albuminterpret%" -T "COMPOSER=%composer%" %haslyrics%--tag-from-file=LYRICS="%lyricsfile%"%haslyrics% -T "ALBUMARTIST=%albumartist%" -T "DISCNUMBER=%cdnumber%" -T "TOTALDISCS=%totalcds%" -T "TOTALTRACKS=%numtracks%" -T "COMMENT=%comment%" %source% -o %dest%

TOC of the extracted CD

Track | Start | Length | Start sector | End sector
---------------------------------------------------------
1 | 0:00.00 | 7:16.53 | 0 | 32752
2 | 7:16.53 | 7:34.12 | 32753 | 66814
3 | 14:50.65 | 8:07.49 | 66815 | 103388
4 | 22:58.39 | 8:22.24 | 103389 | 141062
5 | 31:20.63 | 7:27.69 | 141063 | 174656
6 | 38:48.57 | 7:30.52 | 174657 | 208458
7 | 46:19.34 | 8:21.25 | 208459 | 246058
8 | 54:40.59 | 7:51.32 | 246059 | 281415
9 | 62:32.16 | 8:16.63 | 281416 | 318678
10 | 70:49.04 | 8:14.00 | 318679 | 355728

Track 1

Filename I:\Zymosis - Between Two Points (2012) [FLAC - CD]\01 - One Day.wav

Pre-gap length 0:00:02.00

Peak level 99.0 %
Extraction speed 1.8 X
Track quality 100.0 %
Test CRC 13B88AA1
Copy CRC 13B88AA1
Track not present in AccurateRip database
Copy OK

Track 2

Filename I:\Zymosis - Between Two Points (2012) [FLAC - CD]\02 - Awakening.wav

Peak level 99.0 %
Extraction speed 2.0 X
Track quality 99.9 %
Test CRC 36B5853B
Copy CRC 36B5853B
Track not present in AccurateRip database
Copy OK

Track 3

Filename I:\Zymosis - Between Two Points (2012) [FLAC - CD]\03 - Usual Miracle (Micky Noise & Alkan Rmx).wav

Peak level 99.0 %
Extraction speed 2.3 X
Track quality 100.0 %
Test CRC A8D4B306
Copy CRC A8D4B306
Track not present in AccurateRip database
Copy OK

Track 4

Filename I:\Zymosis - Between Two Points (2012) [FLAC - CD]\04 - So Far, So Close.wav

Peak level 99.0 %
Extraction speed 2.4 X
Track quality 99.9 %
Test CRC 6FDFA4AC
Copy CRC 6FDFA4AC
Track not present in AccurateRip database
Copy OK

Track 5

Filename I:\Zymosis - Between Two Points (2012) [FLAC - CD]\05 - Path Of Nocturnal.wav

Peak level 99.0 %
Extraction speed 2.5 X
Track quality 100.0 %
Test CRC 10326927
Copy CRC 10326927
Track not present in AccurateRip database
Copy OK

Track 6

Filename I:\Zymosis - Between Two Points (2012) [FLAC - CD]\06 - She.wav

Peak level 99.9 %
Extraction speed 1.3 X
Track quality 100.0 %
Test CRC 970103AC
Copy CRC 970103AC
Track not present in AccurateRip database
Copy OK

Track 7

Filename I:\Zymosis - Between Two Points (2012) [FLAC - CD]\07 - Shulman - The Unexpected Visitor (Zymosis Rmx).wav

Peak level 99.0 %
Extraction speed 2.8 X
Track quality 99.9 %
Test CRC A9BA5902
Copy CRC A9BA5902
Track not present in AccurateRip database
Copy OK

Track 8

Filename I:\Zymosis - Between Two Points (2012) [FLAC - CD]\08 - I'll Be Waiting For You.wav

Peak level 99.0 %
Extraction speed 2.9 X
Track quality 99.9 %
Test CRC 45989146
Copy CRC 45989146
Track not present in AccurateRip database
Copy OK

Track 9

Filename I:\Zymosis - Between Two Points (2012) [FLAC - CD]\09 - Quiet Sadness.wav

Peak level 99.0 %
Extraction speed 3.2 X
Track quality 100.0 %
Test CRC 8B69588E
Copy CRC 8B69588E
Track not present in AccurateRip database
Copy OK

Track 10

Filename I:\Zymosis - Between Two Points (2012) [FLAC - CD]\10 - Forgotten Days.wav

Peak level 99.0 %
Extraction speed 3.2 X
Track quality 99.9 %
Test CRC 1D5E4C5C
Copy CRC 1D5E4C5C
Track not present in AccurateRip database
Copy OK

None of the tracks are present in the AccurateRip database

No errors occurred

End of status report

---- CUETools DB Plugin V2.1.3

[CTDB TOCID: nXeIc8.9duyCnxeXJ3Hp4ueyTzI-] disk not present in database, Submit result: nXeIc8.9duyCnxeXJ3Hp4ueyTzI- has been uploaded

==== Log checksum AB7667126838F45D1ACAAC354AB9196FF81749EB5F8434C38066D70EFEB45610 ====
Тривалість: 01:19:03
Мова: відсутня, українська (9)
Аудіо-кодек: FLAC
Бітрейт: 837-999 кб/с
Джерело: інший трекер
Додаткова інформація:
Zymosis - один з найперспективніших українських psytrance проектів. В музиці колективу елементи глибокого chill, ambient і downtempo звучання грамотно поєднуються з яскравими, мелодійними гармоніями і драйвом. Музиканти Zymosis використовують нестандартні підходи до створення композицій, придаючи своєму звучанню оригінальність і довершеність.


Якщо Ви справді бажаєте підтримати українське - після прослуховування, якщо музика вам сподобалась,
придбайте ліцензійний диск.
Підтримаймо вітчизняних виконавців!


Срібний реліз (на рейтинг впливає 50% завантаженого)
 Трекер:    Зареєстрований   

Завантажити / скачати українську музику



відео для новачків



 Зареєстрований:   2012-11-11 20:41
 Розмір:   520 MB 
 Оцінка музики:   6.1/10 (Голосів: 7)
   
BMK12 
Відео Гуртом - підтримка та поширення
Відео Гуртом - підтримка та поширення


З нами з: 13.04.09
Востаннє: 17.08.17
Повідомлень: 3110

2012-11-12 20:00  
Таки-так, цей альбом ще кращий! Зважаючи не це, варто тепер пошукати де його можна придбати.

Додано через 1 хвилину 28 секунд:

І ще, стосовно 9 пісні - як на мене, то вона трохи схожа на білоруську (мова в ній).

ssTAss 
Модератор музики


З нами з: 05.07.08
Востаннє: 18.08.17
Повідомлень: 11769

2012-11-13 01:33  
BMK12 написано:
тепер пошукати де його можна придбати.

http://www.altar-records.com/zymosis.html
CD - 14 євро

stalker456 
Поважний учасник


З нами з: 18.10.09
Востаннє: 13.05.17
Повідомлень: 211

2012-11-13 15:26  
BMK12 написано:
І ще, стосовно 9 пісні - як на мене, то вона трохи схожа на білоруську (мова в ній).

Це українська пісня. Ось лірика:
На тин сіла пташка, дівці жити тяжко.
Пташка заспівала, дівка заридала.

Чуєш мой козаче, як я горко плачу.
Ой знаю не чуєш, бо знайшов другую.

Гуляла з тобою, правдоньки не скрою.
На руках дитина,ой я не щаслива.

Ой Василю,на дитину. Ой Василю на дитину. Як не возьмеш,
то я кину….

Дитину в колисці повішу на гілці,
Най вітрець гойдає,дитя присипляє.
А пташки співали, дитяті казали,
Тихо спи маленьке, вже не дождеш неньки.

BMK12 
Відео Гуртом - підтримка та поширення
Відео Гуртом - підтримка та поширення


З нами з: 13.04.09
Востаннє: 17.08.17
Повідомлень: 3110

2012-11-13 22:13  
ssTAss
14 євро - трохи є...

stalker456
Так, справді українська, вже прислухався. А з першого разу так здалось що не зовсім)

Ваш часовий пояс: GMT + 2 Години

Нова тема   Відповісти