Покидьки (Сезон 4) / Misfits (Season 4) (2012) 720p Ukr/Eng

Нові коментарі

Нова тема   Відповісти
Останній раз роздавалося leicheman (2019-08-18)
Автор Повідомлення
Killrocker 
Свій


З нами з: 04.08.10
Востаннє: 11.08.19
Повідомлень: 89

2012-11-07 18:38  
Покидьки (Сезон 4) / Misfits (Season 4) (2012) 720p Ukr/Eng

Покидьки (Сезон 4) / Misfits (Season 4) (2012) 720p Ukr/Eng




Кіностудія / кінокомпанія: Clerkenwell Films / E4
Режисер: Том Грін, Том Харпер, Чіна Му-Єн
Актори: Роберт Шіен, Іван Реон, Лорен Соша, Антонія Томас, Натан Стюарт-Джарретт, Алекс Рід, Рут Неґа, Майкл Обіора, Крейг Паркінсон, Анна Коваль, Дені Сепані, Мішель Фейрлі, Джеймі Блеклі, Бен Сміт, Декстер Флетчер, та інші.

Сюжет:
Келлі, Нейтан, Кертіс, Аліша і Саймон виконують громадські роботи за скоєння дрібних злочинів. Вони - не друзі, і в них немає нічого спільного. У групі постійно відбуваються конфлікти, суперечки та бійки. Але в один день під час сильного шторму, блискавка робить з них супергероїв і наділяє їх надможливостями. Вони й гадки не мають, що робити з цими надможливостями.
Ніхто з них не радий своїй новій силі, тому що вона розкриває їхні найглибші комплекси і таємниці, які б вони не хотіли виставляти напоказ. Наприклад, Келлі, заклопотана громадською думкою про себе, отримує здатність читати чужі думки, а у Кертіса з'являється здатність повертати минуле. Вони просто хочуть швидше закінчити свої виправні роботи і поринути з головою у звичайне життя тінейджерів. Але доля їм припасла ще одне завдання, адже після жахливого шторму в місті надздібностями стали володіти не тільки вони одні...


Тривалість: 1 серія: 45:00 (цілком серій: 8)
Якість:
Відео:
кодек:
розмір кадру: 1280*720
бітрейт: 2 214 кб/с

Аудіо # 1:
мова: українська
переклад: багатоголосий закадровий від UATeam
кодек: 2.0
бітрейт: 384 кб/с

Аудіо # 2:
мова: англійська
переклад: оригінал
кодек: 2.0
бітрейт: 384 кб/с
Info
Misfits.s04e01.HDTV.Ukr.Eng.uateam.
Format :
Format version : Version 2
File size : 980 MiB
Duration : 45mn 1s
Overall bit rate : 3 042 Kbps
Movie name : UATEAM.TV
Encoded date : UTC 2012-10-30 19:14:14
Writing application : v2.9.0 ('Moanin'') built on May 22 2009 17:46:31
Writing library : Larry Sanders

Video
ID : 1
Format : AVC
Format/Info : Advanced Video Codec
Format profile : [email protected]
Format settings, CABAC : Yes
Format settings, ReFrames : 5 frames
Codec ID : V_MPEG4/ISO/AVC
Duration : 45mn 1s
Bit rate : 2 214 Kbps
Width : 1 280 pixels
Height : 720 pixels
Display aspect ratio : 16:9
Frame rate mode : Constant
Frame rate : 25.000 fps
Color space : YUV
Chroma subsampling : 4:2:0
Bit depth : 8 bits
Scan type : Progressive
Bits/(Pixel*Frame) : 0.096
Stream size : 713 MiB (73%)
Writing library : core 128 r2216 198a7ea
Encoding settings : cabac=1 / ref=5 / deblock=1:0:0 / analyse=0x3:0x113 / me=umh / subme=8 / psy=1 / psy_rd=1.00:0.00 / mixed_ref=1 / me_range=16 / chroma_me=1 / trellis=1 / 8x8dct=1 / cqm=0 / deadzone=21,11 / fast_pskip=1 / chroma_qp_offset=-2 / threads=12 / lookahead_threads=2 / sliced_threads=0 / nr=0 / decimate=1 / interlaced=0 / bluray_compat=0 / constrained_intra=0 / bframes=3 / b_pyramid=2 / b_adapt=2 / b_bias=0 / direct=3 / weightb=1 / open_gop=0 / weightp=2 / keyint=250 / keyint_min=25 / scenecut=40 / intra_refresh=0 / rc_lookahead=50 / rc=crf / mbtree=1 / crf=19.0 / qcomp=0.60 / qpmin=0 / qpmax=69 / qpstep=4 / ip_ratio=1.40 / aq=1:1.00
Language : English
Default : Yes
Forced : No

Audio #1
ID : 2
Format : AC-3
Format/Info : Audio Coding 3
Mode extension : CM (complete main)
Format settings, Endianness : Big
Codec ID : A_AC3
Duration : 45mn 1s
Bit rate mode : Constant
Bit rate : 384 Kbps
Channel(s) : 2 channels
Channel positions : Front: L R
Sampling rate : 48.0 KHz
Bit depth : 16 bits
Compression mode : Lossy
Stream size : 124 MiB (13%)
Title : UATEAM.TV
Language : Ukrainian
Default : Yes
Forced : No

Audio #2
ID : 3
Format : AC-3
Format/Info : Audio Coding 3
Mode extension : CM (complete main)
Format settings, Endianness : Big
Codec ID : A_AC3
Duration : 45mn 1s
Bit rate mode : Constant
Bit rate : 384 Kbps
Channel(s) : 2 channels
Channel positions : Front: L R
Sampling rate : 48.0 KHz
Bit depth : 16 bits
Compression mode : Lossy
Stream size : 124 MiB (13%)
Language : English
Default : No
Forced : No
Світлини



18.12
додано заключну 8 серію
Торрент перезалито

Особиста оцінка: 10 - без зайвих вагань рекомендую всім!


Авторський реліз (завантажувати можна без реєстрації)
 Трекер:    Зареєстрований   

Завантажити / скачати серіал українською



відео для новачків



 Зареєстрований:   2012-12-18 17:42
 Розмір:   7.32 GB 
 Оцінка серіалу:   9.3/10 (Голосів: 32)
   
ratbol 
Модератор HD


З нами з: 03.02.09
Востаннє: 13.08.19
Повідомлень: 1076

2012-11-07 19:33  
Перейменуйте згідно правил.
https://toloka.to/t20052

Killrocker 
Свій


З нами з: 04.08.10
Востаннє: 11.08.19
Повідомлень: 89

2012-11-07 19:56  
ratbol
А що не так?

ratbol 
Модератор HD


З нами з: 03.02.09
Востаннє: 13.08.19
Повідомлень: 1076

2012-11-07 20:02  
Killrocker
DiGen написано:
10. Обов"язкові вимоги до підпису(назви) файлу:
1) назва фільму(файлу) виключно латиницею і тільки англійська версія;
2) назва файлу та торент-файлу повинна бути ідентичною;
3) має містити такий мінімум Назва рік якість тип

Цитата:
Приклад, Ice Age: The Meltdown (2006) 720р


Додано через 1 хвилину 30 секунд:

Ще приклад:
https://toloka.to/t40645

Карва 
Поважний учасник


З нами з: 15.06.10
Востаннє: 16.08.19
Повідомлень: 238

2012-11-08 23:13  
Підскажіть , ящось пропустив 3 сезон. Він був на роздачі "Гуртом" ?
Killrocker 
Свій


З нами з: 04.08.10
Востаннє: 11.08.19
Повідомлень: 89

2012-11-09 01:20  
Карва
Він є, але в звичайній версії, якшо хочеш, то можеш почекати до завтра, я викладу версію в високій якості.

ninenine 
Відео Гуртом - фільмокрай
Відео Гуртом - фільмокрай


З нами з: 23.10.09
Востаннє: 17.08.19
Повідомлень: 1149

2013-03-31 19:21  
Четвертий сезон ще гірше третього, перша серія щось не дуже, може далі буде краще.
Chornobruvui 
Частий відвідувач


З нами з: 30.01.11
Востаннє: 16.05.19
Повідомлень: 35

2015-02-25 21:58  
Станьте хтось на роздачу, будь ласка
Greskiv 
Частий відвідувач


З нами з: 01.04.13
Востаннє: 09.08.19
Повідомлень: 44

2015-10-26 18:12  
Чому ніхто не роздає?
Ваш часовий пояс: GMT + 2 Години

Нова тема   Відповісти