Покемон назавжди: Селебі - голос лісу / Pokemon 4Ever: Celebi - Voice of the Forest / Pocket Monsters: Serebii Toki o Koeta Deai (2001) 720p UKR/ENG

Нові коментарі

Нова тема   Відповісти
Автор Повідомлення
Sensetivity 
VIP


З нами з: 03.05.11
Востаннє: 03.01.13
Повідомлень: 2016

2012-11-06 00:11  
Покемон назавжди: Селебі - голос лісу
Pokemon 4Ever: Celebi - Voice of the Forest
Pocket Monsters: Serebii Toki o Koeta Deai

Покемон назавжди: Селебі - голос лісу / Pokemon 4Ever: Celebi - Voice of the Forest / Pocket Monsters: Serebii Toki o Koeta Deai (2001) 720p UKR/ENG


Жанр: пригоди, комедія, фентезі, аніме
Країна: Японія



Кіностудія / кінокомпанія:
Режисер: Юяма Куніхіко
Ролі озвучують: Хаяшібара Меґумі, Мацумото Ріка, Оотані Ікуе

Сюжет:
Хлопчик на ім'я Юкінарі допомагає легендарному покемону Селебі, хранителю лісу, урятуватися від мисливця за рідкісними покемонами. За допомогою здібностей Селебі вони разом переносяться на 40 років у майбутнє, за часів подорожі Еша по Джото.

Еш і Юкінарі разом допомагають утомленому, виснаженому гонитвою Селебі зцілитися. Але це лише початок пригод, що поклали початок дивовижній дружбі між Ешем, Юкінарі, Селебі та Пікачу. Повернувшись у свій час, Юкінарі дізнається, що мисливці тільки лише удосконалили свою зброю і знову погрожують покемонам. Зло підстерігає вірних друзів і в цьому часі.

Таємничий лорд Вішем нападає на Селебі і перетворює його на "Темного покемона", сподіваючись використати його силу для підкорення світу. Друзі поспішають на допомогу Селебі, допомагає їм і легендарний пес Суїкун.


Тривалість: 1:16:15
Якість:
Відео:
кодек: 10bit
розмір кадру: 1280 х 720p
бітрейт: 6000 кб/с

Аудіо #1:
мова: українська
переклад: багатоголосий закадровий
кодек: 5.1
бітрейт: 448 кб/с

Аудіо #2:
мова: англійська
переклад: дубляж
кодек: 5.1
бітрейт: 448 кб/с

Запис звуку: xslim
Зведення: Sensetivity
Джерело озвучення:
MI
General
Unique ID : 222153893483682993445817365732034577267 (0xA721489830C8F6329695A78FE2F38373)
Complete name : F:\RIP\Pokemon 4Ever - Celebi - Voice of the Forest (2001) 720р.
Format :
Format version : Version 2
File size : 3.81 GiB
Duration : 1h 19mn
Overall bit rate : 6 874 Kbps
Movie name : Покемон назавжди: Селебі - голос лісу / Pokemon 4Ever: Celebi - Voice of the Forest (2001)
Encoded date : UTC 2012-11-06 22:27:27
Writing application : mkvmerge v5.0.1 ('Es ist Sommer') built on Nov 6 2011 16:23:40
Writing library : libebml v1.2.2 + libmatroska v1.3.0

Video
ID : 1
Format : AVC
Format/Info : Advanced Video Codec
Format profile : High [email protected]
Format settings, CABAC : Yes
Format settings, ReFrames : 6 frames
Codec ID : V_MPEG4/ISO/AVC
Duration : 1h 19mn
Bit rate : 6 000 Kbps
Width : 1 280 pixels
Height : 720 pixels
Display aspect ratio : 16:9
Frame rate mode : Constant
Frame rate : 23.976 fps
Color space : YUV
Chroma subsampling : 4:2:0
Bit depth : 10 bits
Scan type : Progressive
Bits/(Pixel*Frame) : 0.272
Stream size : 3.24 GiB (85%)
Title : Sensetivity-raws
Writing library : core 120 r2120+639 552713c
Encoding settings : cabac=1 / ref=6 / deblock=1:-3:-2 / analyse=0x3:0x113 / me=umh / subme=9 / psy=1 / fade_compensate=0.00 / psy_rd=0.91:0.00 / mixed_ref=1 / me_range=30 / chroma_me=1 / trellis=2 / 8x8dct=1 / cqm=0 / deadzone=21,11 / fast_pskip=1 / chroma_qp_offset=-2 / threads=6 / sliced_threads=0 / nr=0 / decimate=1 / interlaced=0 / bluray_compat=0 / constrained_intra=0 / fgo=0 / bframes=10 / b_pyramid=2 / b_adapt=2 / b_bias=0 / direct=3 / weightb=1 / open_gop=0 / weightp=2 / keyint=240 / keyint_min=24 / scenecut=40 / intra_refresh=0 / rc_lookahead=30 / rc=2pass / mbtree=1 / bitrate=6000 / ratetol=1.0 / qcomp=0.95 / qpmin=5 / qpmax=81 / qpstep=6 / cplxblur=20.0 / qblur=0.5 / ip_ratio=1.40 / aq=2:0.80
Language : English
Default : Yes
Forced : Yes

Audio #1
ID : 2
Format : AC-3
Format/Info : Audio Coding 3
Mode extension : CM (complete main)
Format settings, Endianness : Big
Codec ID : A_AC3
Duration : 1h 19mn
Bit rate mode : Constant
Bit rate : 448 Kbps
Channel(s) : 6 channels
Channel positions : Front: L C R, Side: L R, LFE
Sampling rate : 48.0 KHz
Bit depth : 16 bits
Compression mode : Lossy
Stream size : 254 MiB (7%)
Title : Багатоголосий закадровий, телеканал ТЕТ
Language : Ukrainian
Default : No
Forced : Yes

Audio #2
ID : 3
Format : AC-3
Format/Info : Audio Coding 3
Mode extension : CM (complete main)
Format settings, Endianness : Big
Codec ID : A_AC3
Duration : 1h 19mn
Bit rate mode : Constant
Bit rate : 448 Kbps
Channel(s) : 6 channels
Channel positions : Front: L C R, Side: L R, LFE
Sampling rate : 48.0 KHz
Bit depth : 16 bits
Compression mode : Lossy
Stream size : 254 MiB (7%)
Title : Дубляж
Language : English
Default : No
Forced : No
Forced : No

VIDEO ENCODING
------------------------------
Encoding video to: F:\RIP\Poke-04-003.
10-bit depth 6000kbps 1280x720 23.976fps (10236 frames)

...first pass...

x264_64.exe: --pass 1 --bitrate 6000 --preset slow --profile high10 --level 4.1 --ref 6 --aq-mode 2 --aq-strength 0.8 --deblock -3:-2 --merange 30 --bframes 10 --trellis 2 --qpmin 5 --qpstep 6 --psy-rd 0.91:0.00 --qcomp 0.95 --subme 9 --rc-lookahead 30 --min-keyint 24 --keyint 240 --sar 1:1 --stats "F:\RIP\Poke-04-003.log" --output NUL "F:\Temp\0801.avs"

raw [info]: 1280x720p 1:1 @ 24000/1001 fps (cfr)
raw [info]: color matrix: undef
[info]: using SAR=1/1
[info]: using cpu capabilities: MMX2 SSE2Fast SSSE3 FastShuffle SSE4.2 AVX
[info]: profile High 10, level 4.1, 4:2:0 10-bit

[info]: frame I:82 Avg QP:28.02 size:162022
[info]: frame P:2002 Avg QP:31.23 size: 48715
[info]: frame B:8152 Avg QP:31.42 size: 25049
[info]: consecutive B-frames: 1.8% 1.9% 4.1% 17.1% 9.5% 46.5% 7.7% 2.4% 4.9% 1.5% 2.6%
[info]: mb I I16..4: 18.8% 0.0% 81.2%
[info]: mb P I16..4: 25.9% 0.0% 0.0% P16..4: 71.0% 0.0% 0.0% 0.0% 0.0% skip: 3.2%
[info]: mb B I16..4: 9.8% 0.0% 0.0% B16..8: 46.1% 0.0% 0.0% direct:31.8% skip:12.2% L0:25.7% L1:34.8% BI:39.6%
[info]: final ratefactor: 19.40
[info]: direct mvs spatial:99.8% temporal:0.2%
[info]: coded y,uvDC,uvAC intra: 86.1% 74.3% 37.6% inter: 41.2% 37.1% 3.2%
[info]: i16 v,h,dc,p: 13% 13% 59% 15%
[info]: i4 v,h,dc,ddl,ddr,vr,hd,vl,hu: 17% 16% 17% 4% 11% 8% 8% 8% 11%
[info]: i8c dc,h,v,p: 52% 23% 19% 7%
[info]: Weighted P-Frames: Y:9.8% UV:4.0%
[info]: kb/s:5902.93

[total]: encoded 10236 frames, 3.64 fps, 5902.93 kb/s

...last pass...

x264_64.exe: --pass 2 --bitrate 6000 --preset slow --profile high10 --level 4.1 --ref 6 --aq-mode 2 --aq-strength 0.8 --deblock -3:-2 --merange 30 --bframes 10 --trellis 2 --qpmin 5 --qpstep 6 --psy-rd 0.91:0.00 --qcomp 0.95 --subme 9 --rc-lookahead 30 --min-keyint 24 --keyint 240 --stats "F:\RIP\Poke-04-003.log" --sar 1:1 --output "F:\RIP\Poke-04-003." "F:\Temp\0801.avs"

raw [info]: 1280x720p 1:1 @ 24000/1001 fps (cfr)
raw [info]: color matrix: undef
[info]: using SAR=1/1
[info]: using cpu capabilities: MMX2 SSE2Fast SSSE3 FastShuffle SSE4.2 AVX
[info]: profile High 10, level 4.1, 4:2:0 10-bit

[info]: frame I:82 Avg QP:28.67 size:155889
[info]: frame P:2002 Avg QP:31.34 size: 47975
[info]: frame B:8152 Avg QP:31.60 size: 25922
[info]: consecutive B-frames: 1.8% 1.9% 4.1% 17.1% 9.5% 46.5% 7.7% 2.4% 4.9% 1.5% 2.6%
[info]: mb I I16..4: 1.8% 80.1% 18.1%
[info]: mb P I16..4: 0.2% 6.3% 1.1% P16..4: 44.1% 31.0% 15.9% 0.0% 0.0% skip: 1.5%
[info]: mb B I16..4: 0.0% 0.8% 0.1% B16..8: 47.7% 15.9% 5.0% direct:11.6% skip:18.9% L0:43.7% L1:45.8% BI:10.5%
[info]: 8x8 transform intra:84.6% inter:56.7%
[info]: direct mvs spatial:99.2% temporal:0.8%
[info]: coded y,uvDC,uvAC intra: 96.8% 92.7% 73.4% inter: 46.4% 49.6% 5.4%
[info]: i16 v,h,dc,p: 15% 28% 14% 43%
[info]: i8 v,h,dc,ddl,ddr,vr,hd,vl,hu: 8% 7% 4% 12% 15% 14% 15% 12% 13%
[info]: i4 v,h,dc,ddl,ddr,vr,hd,vl,hu: 7% 6% 1% 11% 17% 17% 15% 13% 12%
[info]: i8c dc,h,v,p: 40% 22% 17% 21%
[info]: Weighted P-Frames: Y:9.8% UV:4.0%
[info]: ref P L0: 50.5% 25.1% 10.9% 7.5% 5.2% 0.9% 0.0%
[info]: ref B L0: 73.0% 16.8% 6.9% 2.5% 0.8%
[info]: ref B L1: 92.0% 8.0%
[info]: kb/s:5999.09

[total]: encoded 10236 frames, 1.35 fps, 5999.11 kb/s
Скріншоти






Порівняльні скріншоти

Ріп


Сорс

Або ж Клац

Джерело:
Особиста оцінка: 8 - мені сподобалося


Срібний реліз (на рейтинг впливає 50% завантаженого)
 Трекер:    Зареєстрований   

Завантажити / скачати мультфільм українською



відео для новачків



 Зареєстрований:   2012-11-07 01:37
 Розмір:   3.81 GB 
 Оцінка мультфільму:   10/10 (Голосів: 8)
   
bot 
робот


З нами з: 30.09.07
Востаннє: 26.05.05
Повідомлень: 17365

2012-11-06 00:27  
Тему перенесено з Мультфільми до форуму Мультфільми в HD


Sensetivity

ratbol 
Модератор HD


З нами з: 03.02.09
Востаннє: 13.08.17
Повідомлень: 1083

2012-11-06 10:48  
Чому порівняльних скріншотів немає?
Звіт Медіаінфо?
Sensetivity написано:
Pokemon 4Ever - Celebi - Voice of the Forest.

Пункт 10.
https://toloka.to/t20052

Sensetivity 
VIP


З нами з: 03.05.11
Востаннє: 03.01.13
Повідомлень: 2016

2012-11-07 01:19  
Увага, назву файлу було змінено із
Pokemon 4Ever - Celebi - Voice of the Forest.
на
Pokemon 4Ever - Celebi - Voice of the Forest (2001) 720р.
Прохання перейменувати та перехешувати торрент файл!

Kriminal 
Новенький


З нами з: 13.12.11
Востаннє: 04.08.17
Повідомлень: 7

2013-01-16 22:28  
звідки така якість? мультику вже перевалило за десяток років
AlfieAllen 
Частий відвідувач


З нами з: 08.07.12
Востаннє: 20.04.17
Повідомлень: 34

2013-01-31 20:27  
швидкості будь-ласка!
NeetScrool 
Відео Гуртом - фільмокрай
Відео Гуртом - фільмокрай


З нами з: 10.01.13
Востаннє: 18.08.17
Повідомлень: 2613

2016-11-27 01:46  
Kriminal написано:
звідки така якість? мультику вже перевалило за десяток років

В Японії перевипустили усі фільми на БД дисках.

NeetScrool 
Відео Гуртом - фільмокрай
Відео Гуртом - фільмокрай


З нами з: 10.01.13
Востаннє: 18.08.17
Повідомлень: 2613

2016-12-11 11:54  
Врятовано.

Прохання модератора оновити скріншоти:









Ваш часовий пояс: GMT + 2 Години

Нова тема   Відповісти