Життя після людей (сезон 1) / Life After People (season 1) (2009) 720p Ukr/Eng

Нові коментарі

Нова тема   Відповісти
Автор Повідомлення
andrey084 
Частий відвідувач


З нами з: 19.12.09
Востаннє: 18.08.17
Повідомлень: 27

2012-11-05 21:05  
Життя після людей (сезон 1) / Life After People (season 1) (2009) 720p Ukr/Eng



Жанр: фантастика, документальний
Країна: США



Режисер: Frank Kosa, Колін Кемпбелл, Laura Verklan, ...
Сюжет:
Автори фільму разом з ученими - біологами, екологами, геологами, інженерами - намагаються знайти відповідь на питання, що станеться з нашою планетою, тваринами і рослинами, якщо люди несподівано зникнуть. Як довго існуватимуть створені людством пам'ятники і артефакти? Що залишиться від нашого індустріального світу? Що зруйнується передусім?

У пошуку відповідей на ці питання експерти звертаються до досвіду минулого, досліджуючи руїни античних цивілізацій і сучасні міста, зруйновані в результаті стихійних лих і техногенних катастроф.

Через 6 місяців приміські райони почнуть заселяти койоти і рисі, що зазвичай стороняться міст, а миші і щури, що поглинули усі їстівні запаси, покинуть їх. Через 25 років морська вода затопить Лондон і Амстердам. Через 40 років майже усі дерев'яні будівлі або згорять, або погниють, або будуть знищені термітами. Зруйнуються земляні греблі. Через 75 років велика частина з 600 мільйонів автомобілів перетвориться на купу металу. Через 100 років обрушаться мости із-за корозії несних конструкцій. Через 200 років не стане навіть хмарочосів.

Через 500 років перетворяться на прах сучасні засоби зберігання інформації: жорсткі диски, DVD, фотоплівка і папір. Через 1000 років на Землі практично не залишиться доказів існування людської цивілізації. Менше всього постраждають будівлі і конструкції, зроблені з масивних каменів і товстого бетону, наприклад, єгипетські піраміди, Велика китайська стіна і гребля Гувера. Проте через 10000 років зникнуть і вони.

Життя на Землі не припиниться після зникнення людей. Просто воно буде іншим.
Перелік серій
01 Залишені тіла
02. Повернення природи
03. Руйнування столиць
04. Металеві джунглі
05. Загарбники
06. Поховані пам`ятки
07. Загибель міста гріхів
08. Військова зброя
09. Дорога в один бік
10. Смертельні води
Тривалість: 1 серія: ~ 42:00 (цілком серій: 10)
Якість:
Відео:
кодек:
розмір кадру: 1280x720
бітрейт: 4650-4855 кб/с

Аудіо # 1:
мова: українська
переклад: двоголосий закадровий
кодек: MP3
бітрейт: 192 кб/с

Аудіо # 2:
мова: англійська
переклад: оригінал
кодек: 2.0
бітрейт: 224 кб/с

Джерело озвучення:


Info
Life After People.S01E01 The Bodies Left Behind 720p.BluRay..
Format :
Format version : Version 2
File size : 1.51 GiB
Duration : 41mn 15s
Overall bit rate : 5 246 Kbps
Encoded date : UTC 2012-11-03 21:56:53
Writing application : mkvmerge v5.7.0 ('The Whirlwind') built on Jul 29 2012 15:12:35
Writing library : libebml v1.2.3 + libmatroska v1.3.0

Video
ID : 1
Format : AVC
Format/Info : Advanced Video Codec
Format profile : [email protected]
Format settings, CABAC : Yes
Format settings, ReFrames : 5 frames
Codec ID : V_MPEG4/ISO/AVC
Duration : 41mn 15s
Bit rate : 4 828 Kbps
Width : 1 280 pixels
Height : 720 pixels
Display aspect ratio : 16:9
Frame rate : 25.000 fps
Color space : YUV
Chroma subsampling : 4:2:0
Bit depth : 8 bits
Scan type : Progressive
Bits/(Pixel*Frame) : 0.210
Stream size : 1.36 GiB (90%)
Writing library : core 118 r2085 8a62835
Encoding settings : cabac=1 / ref=5 / deblock=1:0:0 / analyse=0x3:0x113 / me=umh / subme=8 / psy=1 / psy_rd=1.00:0.00 / mixed_ref=1 / me_range=16 / chroma_me=1 / trellis=1 / 8x8dct=1 / cqm=0 / deadzone=21,11 / fast_pskip=1 / chroma_qp_offset=-2 / threads=6 / sliced_threads=0 / nr=0 / decimate=1 / interlaced=0 / bluray_compat=0 / constrained_intra=0 / bframes=3 / b_pyramid=2 / b_adapt=2 / b_bias=0 / direct=3 / weightb=1 / open_gop=0 / weightp=2 / keyint=250 / keyint_min=25 / scenecut=40 / intra_refresh=0 / rc_lookahead=50 / rc=2pass / mbtree=1 / bitrate=4828 / ratetol=1.0 / qcomp=0.60 / qpmin=0 / qpmax=69 / qpstep=4 / cplxblur=20.0 / qblur=0.5 / ip_ratio=1.40 / aq=1:1.00
Language : English
Default : No
Forced : No

Audio #1
ID : 2
Format : MPEG Audio
Format version : Version 1
Format profile : Layer 3
Mode : Joint stereo
Mode extension : MS Stereo
Codec ID : A_MPEG/L3
Codec ID/Hint : MP3
Duration : 41mn 15s
Bit rate mode : Constant
Bit rate : 192 Kbps
Channel(s) : 2 channels
Sampling rate : 48.0 KHz
Compression mode : Lossy
Stream size : 56.6 MiB (4%)
Writing library : LAME3.93
Encoding settings : -m j -V 4 -q 2 -lowpass 19.3 -b 192
Language : Ukrainian
Default : Yes
Forced : Yes

Audio #2
ID : 3
Format : AC-3
Format/Info : Audio Coding 3
Mode extension : CM (complete main)
Format settings, Endianness : Big
Codec ID : A_AC3
Duration : 41mn 15s
Bit rate mode : Constant
Bit rate : 224 Kbps
Channel(s) : 2 channels
Channel positions : Front: L R
Sampling rate : 48.0 KHz
Bit depth : 16 bits
Compression mode : Lossy
Stream size : 66.1 MiB (4%)
Language : English
Default : No
Forced : No

Menu
00:00:00.000 : en:00:00:00.000
00:01:15.680 : en:00:01:15.680
00:10:49.000 : en:00:10:49.000
00:19:32.000 : en:00:19:32.000
00:26:44.440 : en:00:26:44.440
00:35:35.000 : en:00:35:35.000


Джерело:


Бронзовий реліз (на рейтинг впливає 75% завантаженого)
 Трекер:    Зареєстрований   

Завантажити / скачати фільм українською



відео для новачків



 Зареєстрований:   2012-11-05 21:05
 Розмір:   15.11 GB 
 Оцінка фільму:   9.9/10 (Голосів: 44)
   
Bushido 
VIP


З нами з: 27.12.10
Востаннє: 10.01.17
Повідомлень: 278

2012-11-06 00:54  
Дякую! Колись починав дивитись російською, але навіть однієї серії не додивився. Тепер обов'язково перегляну.
ratbol 
Модератор HD


З нами з: 03.02.09
Востаннє: 20.08.17
Повідомлень: 1083

2012-11-06 10:34  
Додати звіт медіаінфо однієї з серій.
Витягнути скріни з-під спойлера.

Goust 
Частий відвідувач


З нами з: 07.02.12
Востаннє: 20.08.17
Повідомлень: 49

2012-11-15 13:52  
о ... класно а то я 2 сезон подивився тепер буду перший дивитись ))
Nahalist 
Свій


З нами з: 13.12.13
Востаннє: 06.12.16
Повідомлень: 95

2014-04-22 12:42  
о, клас, розширена версія 1.5 годинної версії 2008-го року, дякую.
Omen_33 
Новенький


З нами з: 25.02.13
Востаннє: 27.07.17
Повідомлень: 11

2014-07-05 21:48  
спасибі
tarik1111111 
Поважний учасник


З нами з: 19.10.13
Востаннє: 22.08.17
Повідомлень: 151

2014-09-07 14:35  
подивимось
starmaks_ua 
Новенький


З нами з: 14.12.13
Востаннє: 15.06.17
Повідомлень: 7

2016-04-30 21:31  
В поданому контексті не "із-за корозії", а "через корозію" або "внаслідок дії корозії".
"Із-за" в нашому словнику не існує в принципі.

Ваш часовий пояс: GMT + 2 Години

Нова тема   Відповісти