Хорта - Пісні острова Волі (2006) [] | Hip-Hop

Нові коментарі

Нова тема   Відповісти
Автор Повідомлення
Khtos 
Свій


З нами з: 24.06.09
Востаннє: 16.01.19
Повідомлень: 112

2012-11-03 18:53  
Хорта - Пісні острова Волі (2006) [] | Hip-Hop


Стиль: Hip-Hop
Країна, місто: Україна, Запоріжжя
Видавець: Атлантік
Виконавці:
Андрій Лобода — фронтмен гурту
Юлія Куценко — вокал
Вова Величко — скрипка
Олег Лубенцов — бас
Віталій Жуков — ударні
Юрій Володьков — гітара
Пісні:
    01. Розповім
    02. Небокрай
    03. Бий по очах
    04. Плата ПІ, ТРИ, Де, А
    05. Біжи (Форест Гамп)
    06. Зозуля
    07. Металург
    08. Човгаю (на кумарі я)
    09. Дива не буде
    10. Запоріжжя
    11. Життя продовжується, брате
    12. Вікна

Тривалість: 00:41:59
Мова: українська(1-12)
Аудіо-кодек:
Бітрейт: 1024 кб/с
Джерело: Власний ріп
Додаткова інформація:
"Log"

Exact Audio Copy V1.0 beta 3 from 29. August 2011

EAC extraction logfile from 3. November 2012, 18:48

XORTA / Pisni Ostrova Voli

Used drive : hp DVD A DS8A5LH Adapter: 0 ID: 1

Read mode : Secure
Utilize accurate stream : Yes
Defeat audio cache : Yes
Make use of C2 pointers : No

Read offset correction : 6
Overread into Lead-In and Lead-Out : No
Fill up missing offset samples with silence : Yes
Delete leading and trailing silent blocks : No
Null samples used in CRC calculations : Yes
Used interface : Native Win32 interface for Win NT & 2000

Used output format : User Defined Encoder
Selected bitrate : 1024 kBit/s
Quality : High
Add ID3 tag : No
Command line compressor : C:\Program Files (x86)\Exact Audio Copy\\.exe
Additional command line options : -V -8 -T "Date=%year%" -T "Genre=%genre%" %source%

TOC of the extracted CD

Track | Start | Length | Start sector | End sector
---------------------------------------------------------
1 | 0:00.00 | 4:33.36 | 0 | 20510
2 | 4:33.36 | 3:00.64 | 20511 | 34074
3 | 7:34.25 | 4:00.07 | 34075 | 52081
4 | 11:34.32 | 3:25.13 | 52082 | 67469
5 | 14:59.45 | 3:27.21 | 67470 | 83015
6 | 18:26.66 | 4:53.18 | 83016 | 105008
7 | 23:20.09 | 4:14.24 | 105009 | 124082
8 | 27:34.33 | 4:38.27 | 124083 | 144959
9 | 32:12.60 | 6:05.57 | 144960 | 172391
10 | 38:18.42 | 3:18.01 | 172392 | 187242
11 | 41:36.43 | 3:57.72 | 187243 | 205089
12 | 45:34.40 | 5:24.04 | 205090 | 229393

Range status and errors

Selected range

Filename C:\Users\Константин\Desktop\Horta\XORTA - Pisni Ostrova Voli.wav

Peak level 100.0 %
Extraction speed 4.4 X
Range quality 100.0 %
Test CRC 7AB2E03A
Copy CRC 7AB2E03A
Copy OK

No errors occurred

AccurateRip summary

Track 1 not present in database
Track 2 not present in database
Track 3 not present in database
Track 4 not present in database
Track 5 not present in database
Track 6 not present in database
Track 7 not present in database
Track 8 not present in database
Track 9 not present in database
Track 10 not present in database
Track 11 not present in database
Track 12 not present in database

None of the tracks are present in the AccurateRip database

End of status report

==== Log checksum 9804EDD4B73B7B0CA1FADB9C62360850257421B5CADEA6EC89DD4030F0234D60 ====
Обкладинку взяв тут: https://toloka.to/t4412
Назви пісень дещо різняться, але я треки переписував з власного диску

Якщо Ви справді бажаєте підтримати українське - після прослуховування, якщо музика вам сподобалась, придбайте ліцензійний диск. Підтримаємо вітчизняних виконавців!


Фріліч (завантажене не впливає на рейтинг)
 Трекер:    Зареєстрований   

Завантажити / скачати українську музику



відео для новачків



 Зареєстрований:   2012-11-03 18:53
 Розмір:   355 MB 
 Оцінка музики:   10/10 (Голосів: 15)
   
DY1992 
Новенький


З нами з: 15.06.12
Востаннє: 21.11.18
Повідомлень: 13

2012-11-03 20:24  
Був колись на концерті!!! Wide grin
ssTAss 
Модератор музики


З нами з: 05.07.08
Востаннє: 18.01.19
Повідомлень: 14539

2012-11-04 02:49  
Виконавці:
Андрій Лобода — фронтмен гурту
Юлія Куценко — вокал
Вова Величко — скрипка
Олег Лубенцов — бас
Віталій Жуков — ударні
Юрій Володьков — гітара

Nucleo 
Новенький


З нами з: 13.02.09
Востаннє: 17.01.19
Повідомлень: 10

2012-11-04 14:31  
Пісні "Дива не буде" і "Життя продовжується, брате" - супер.
Khtos 
Свій


З нами з: 24.06.09
Востаннє: 16.01.19
Повідомлень: 112

2012-11-04 17:22  
Був дещо здивований відсутністю цього альбому в лузлесі на Толоці. Невже ніхто диску немає? ; ))
Шандрігон 
Свій


З нами з: 03.05.11
Востаннє: 17.01.19
Повідомлень: 65

2013-07-11 12:10  
Послухаєм, що там молоді регіони співають.
Форкуш 
VIP


З нами з: 03.02.10
Востаннє: 18.01.19
Повідомлень: 2297

2013-08-04 18:16  
Ті шо живуть на "острові волі" і співають Рабів до раю не пускають мають російськомовний сайт!
Хлопці явно не шурупають...
Тьху!

embla 
Новенький


З нами з: 22.02.15
Востаннє: 26.05.15
Повідомлень: 1

2015-02-22 23:57  
Світла пам"ять Андрієві Лободі Sad (1) Нехай живе його справа і шириться на південних землях нашої Батьківщини!
Форкуш 
VIP


З нами з: 03.02.10
Востаннє: 18.01.19
Повідомлень: 2297

2015-02-23 07:42  
embla написано:
Нехай живе його справа і шириться на південних землях нашої Батьківщини!

Сплюньте... То нічо шо він очолював Молоді регіони і на дєнь пабєди з георгієвською стрічкою маршував?

Jagermeister 
Новенький


З нами з: 23.09.15
Востаннє: 07.01.19
Повідомлень: 9

2018-11-23 09:44  
Форкуш
...але всеж головне те, що він співав - "ми єдина країна" та інше

Форкуш 
VIP


З нами з: 03.02.10
Востаннє: 18.01.19
Повідомлень: 2297

2018-11-23 09:47  
Jagermeister
Янукович те саме говорив.

Ваш часовий пояс: GMT + 2 Години

Нова тема   Відповісти