У пошуках Немо / Finding Nemo (2003) 720p Ukr/Eng | sub Ukr/Eng

Нові коментарі

Нова тема   Відповісти
Автор Повідомлення
DеLight 
Відео Гуртом - фільмокрай
Відео Гуртом - фільмокрай


З нами з: 24.08.11
Востаннє: 16.08.17
Повідомлень: 661

2012-10-31 22:02  
У пошуках Немо / Finding Nemo (2003) 720p Ukr/Eng | sub Ukr/Eng

У пошуках Немо / Finding Nemo (2003) 720p Ukr/Eng | sub Ukr/Eng

«Від творців Корпорації Монстрів»


Альтернативна обкладинка:




Жанр: анімація, сімейний, пригодницький, комедія
Країна: Австралія, США

Top 250: #167

Кіностудія / кінокомпанія: Disney Enterprises Inc., Pixar Animation Studios, Walt Disney Pictures



Ендрю Стентон / Andrew Stanton

Альберт Брукс/ Albert Brooks, Елен ДеҐенерес / Ellen DeGeneres, Александр Ґулд / Alexander Gould, Віллем Дефо / Willem Dafoe, Ендрю Стентон / Andrew Stanton та інші

В сім'ї рибок-клоунів Марліна і Корал трапляється лихо: риба-хижак нападає на них і з'їдає Корал - дружину Марліна й всю їхню ікру. У Марліна лишається лише одна ікринка. З неї народжується Немо. Свого єдиного сина Марлін дуже оберігає, намагаючись убезпечити його від усіх небезпек океану. Але от приходить час і Немо відправляється в школу для маленьких рибок. Його невгамовна допитливість та впертість приводять до того, що Немо стає жертвою любителя підводного плавання й він опиняється в акваріумі стоматолога, що мешкає у Сіднеї.

Батько відправляється на пошуки єдиної рідної душі. На своєму шляху головні герої зустрічають безліч харизматичних героїв, які допомагають їм зустрітися і знову об'єднати родину.

У 2003 році отримав Оскар у номінації "Найкраща анімаційна стрічка" (Best Animated Feature) + ще 3 номінації.
В активі також 34 гран-прі та 35 номінацій у інших фестивалях.



Тривалість: 01:40:54
Якість: 720p [ріп від WiKi]

Відео:
кодек:
розмір кадру: 1280 x 720
бітрейт: 5,0 Мб/с

Аудіо #1:
мова: українська
переклад: професійний дубльований | LeDoyen Studio
кодек: 5.1
бітрейт: 640 кб/с

Аудіо #2:
мова: англійська
переклад: оригінал
кодек: 5.1
бітрейт: 640 кб/с

Субтитри #1: full
мова: українська
тип: програмні (м'які)
формат: *.srt

Субтитри #2-3: full, SDH
мова: англійська
тип: програмні (м'які)
формат: *.srt

Збережені оригінальні розділи як на Blu-ray


Info

Код:
General
Unique ID                      : 206065135646769654140885544770812607484 (0x9B06B3970D85A942B45CB279116D7BFC)
Complete name                  : D:\Torrents\Finding Nemo (2003) 720p [Ukr, Eng] [Hurtom].
Format                         :
Format version                 : Version 2
File size                      : 4.43 GiB
Duration                       : 1h 40mn
Overall bit rate               : 6 283 Kbps
Movie name                     : Finding Nemo (2003) 720p [Ukr, Eng] [Hurtom] by Delight
Encoded date                   : UTC 2012-11-12 15:44:44
Writing application            : mkvmerge v5.8.0 ('No Sleep / Pillow') built on Sep  2 2012 15:37:04
Writing library                : libebml v1.2.3 + libmatroska v1.3.0

Video
ID                             : 1
Format                         : AVC
Format/Info                    : Advanced Video Codec
Format profile                 : [email protected]
Format settings, CABAC         : Yes
Format settings, ReFrames      : 8 frames
Codec ID                       : V_MPEG4/ISO/AVC
Duration                       : 1h 40mn
Bit rate                       : 5 000 Kbps
Width                          : 1 280 pixels
Height                         : 720 pixels
Display aspect ratio           : 16:9
Frame rate mode                : Constant
Frame rate                     : 23.976 fps
Color space                    : YUV
Chroma subsampling             : 4:2:0
Bit depth                      : 8 bits
Scan type                      : Progressive
Bits/(Pixel*Frame)             : 0.226
Stream size                    : 3.44 GiB (78%)
Title                          : Finding Nemo (2003) 720p [WiKi]
Writing library                : core 125 r2200 999b753
Encoding settings              : cabac=1 / ref=8 / deblock=1:-1:-1 / analyse=0x3:0x113 / me=umh / subme=10 / psy=1 / psy_rd=1.00:0.10 / mixed_ref=1 / me_range=32 / chroma_me=1 / trellis=2 / 8x8dct=1 / cqm=0 / deadzone=21,11 / fast_pskip=0 / chroma_qp_offset=-5 / threads=12 / lookahead_threads=2 / sliced_threads=0 / nr=0 / decimate=0 / interlaced=0 / bluray_compat=0 / constrained_intra=0 / bframes=8 / b_pyramid=2 / b_adapt=2 / b_bias=0 / direct=3 / weightb=1 / open_gop=0 / weightp=2 / keyint=250 / keyint_min=23 / scenecut=40 / intra_refresh=0 / rc_lookahead=48 / rc=2pass / mbtree=1 / bitrate=5000 / ratetol=1.0 / qcomp=0.60 / qpmin=0 / qpmax=69 / qpstep=4 / cplxblur=20.0 / qblur=0.5 / ip_ratio=1.40 / aq=1:0.00
Language                       : English
Default                        : Yes
Forced                         : No

Audio #1
ID                             : 2
Format                         : AC-3
Format/Info                    : Audio Coding 3
Mode extension                 : CM (complete main)
Format settings, Endianness    : Big
Codec ID                       : A_AC3
Duration                       : 1h 40mn
Bit rate mode                  : Constant
Bit rate                       : 640 Kbps
Channel(s)                     : 6 channels
Channel positions              : Front: L C R, Side: L R, LFE
Sampling rate                  : 48.0 KHz
Bit depth                      : 16 bits
Compression mode               : Lossy
Stream size                    : 462 MiB (10%)
Title                          : 5.1; 640 kbps; професійний дубльований {LeDoyen Studio}
Language                       : Ukrainian
Default                        : Yes
Forced                         : No

Audio #2
ID                             : 3
Format                         : AC-3
Format/Info                    : Audio Coding 3
Mode extension                 : CM (complete main)
Format settings, Endianness    : Big
Codec ID                       : A_AC3
Duration                       : 1h 40mn
Bit rate mode                  : Constant
Bit rate                       : 640 Kbps
Channel(s)                     : 6 channels
Channel positions              : Front: L C R, Side: L R, LFE
Sampling rate                  : 48.0 KHz
Bit depth                      : 16 bits
Compression mode               : Lossy
Stream size                    : 462 MiB (10%)
Title                          : 5.1; 640 kbps; original
Language                       : English
Default                        : No
Forced                         : No

Text #1
ID                             : 4
Format                         : UTF-8
Codec ID                       : S_TEXT/UTF8
Codec ID/Info                  : UTF-8 Plain Text
Title                          : full
Language                       : Ukrainian
Default                        : No
Forced                         : No

Text #2
ID                             : 5
Format                         : UTF-8
Codec ID                       : S_TEXT/UTF8
Codec ID/Info                  : UTF-8 Plain Text
Title                          : full
Language                       : English
Default                        : No
Forced                         : No

Text #3
ID                             : 6
Format                         : UTF-8
Codec ID                       : S_TEXT/UTF8
Codec ID/Info                  : UTF-8 Plain Text
Title                          : SDH
Language                       : English
Default                        : No
Forced                         : No

Menu
00:00:00.000                   : :Chapter 01
00:04:18.716                   : :Chapter 02
00:05:35.668                   : :Chapter 03
00:11:17.802                   : :Chapter 04
00:12:16.277                   : :Chapter 05
00:14:08.847                   : :Chapter 06
00:16:29.279                   : :Chapter 07
00:18:50.337                   : :Chapter 08
00:25:31.988                   : :Chapter 09
00:30:54.227                   : :Chapter 10
00:33:01.646                   : :Chapter 11
00:36:11.836                   : :Chapter 12
00:40:19.166                   : :Chapter 13
00:44:58.278                   : :Chapter 14
00:48:12.389                   : :Chapter 15
00:51:28.418                   : :Chapter 16
00:56:07.030                   : :Chapter 17
01:00:55.902                   : :Chapter 18
01:05:20.666                   : :Chapter 19
01:07:02.101                   : :Chapter 20
01:08:30.147                   : :Chapter 21
01:13:19.436                   : :Chapter 22
01:14:15.200                   : :Chapter 23
01:16:00.097                   : :Chapter 24
01:18:41.299                   : :Chapter 25
01:21:57.621                   : :Chapter 26
01:24:29.481                   : :Chapter 27
01:26:54.334                   : :Chapter 28
01:29:26.611                   : :Chapter 29
01:30:51.362                   : :Chapter 30
01:32:42.974                   : :Chapter 31
01:33:24.265                   : :Chapter 32

Світлини


















Джерело: &
Особиста оцінка: 10 - прекрасний мальовничий мульт для всієї сім'ї


Торент оновлено - додана українська доріжка 5.1, українські субтитри та новий ріп із Blu-ray Disc CEE [CEE - Central Eastern Europe original release!]


Срібний реліз (на рейтинг впливає 50% завантаженого)
 Трекер:    Зареєстрований   

Завантажити / скачати мультфільм українською



відео для новачків



 Зареєстрований:   2012-11-12 20:38
 Розмір:   4.43 GB 
 Оцінка мультфільму:   9.7/10 (Голосів: 47)
   
Інші релізи
   У пошуках Немо / Finding Nemo (2003) [MP4, 640x] apvAltisimo  3 / 0   872 MB   2016-05-27 15:48 
   У пошуках Немо / Finding Nemo (2003) AVC Drool  40 / 0   1.63 GB   2013-10-20 02:35 
   У пошуках Немо / Finding Nemo (2003) 1080p Ukr/Eng | sub Ukr/Eng igor911  20 / 0   5.77 GB   2013-01-13 09:52 
   У пошуках Немо / Finding Nemo (2003) Ukr/Eng | Sub Ukr/Eng karvai0  31 / 0   2.18 GB   2012-11-14 03:15 
   У пошуках Немо / Finding Nemo (2003) Remux 1080p Ukr/Eng | Sub Ukr/Eng leroykendall  9 / 0   22.43 GB   2012-11-12 23:38 
Віктор 
Відео Гуртом - субтитрування
Відео Гуртом - субтитрування


З нами з: 09.01.10
Востаннє: 11.08.17
Повідомлень: 8686

2012-10-31 22:21  
У пошуках Немо.
Kitler 
Модератор програмного забезпечення


З нами з: 22.04.11
Востаннє: 19.08.17
Повідомлень: 592

2012-10-31 23:38  
Колись давнооооо дивися. Тоді це був мій улюблений мультфільм. Ех... Потім моїми улюбленими стали ті, в яких побільше насилля і жорстокості.
DеLight 
Відео Гуртом - фільмокрай
Відео Гуртом - фільмокрай


З нами з: 24.08.11
Востаннє: 16.08.17
Повідомлень: 661

2012-10-31 23:54  
w2958l написано:
У пошуках Немо.

Таки так, в озвучці саме "У...", хоча на толоці всі "В..."
Підкоректував, дякую!

Віктор 
Відео Гуртом - субтитрування
Відео Гуртом - субтитрування


З нами з: 09.01.10
Востаннє: 11.08.17
Повідомлень: 8686

2012-11-01 00:02  
Delight` написано:
Таки так, в озвучці саме "У...", хоча на толоці всі "В..."

Про норми української мови ніхто не чув - http://ponomariv-kultura-slova.wikidot.com/fonetyka

Перлина 
Свій


З нами з: 22.03.10
Востаннє: 21.07.17
Повідомлень: 104

2012-11-01 11:28  
Скоро в 3D!!!
DеLight 
Відео Гуртом - фільмокрай
Відео Гуртом - фільмокрай


З нами з: 24.08.11
Востаннє: 16.08.17
Повідомлень: 661

2012-11-12 20:39  

Торент оновлено - додана українська доріжка 5.1, українські субтитри та новий ріп із Blu-ray Disc CEE [CEE - Central Eastern Europe original release!]
Прохання перезавантажити торент!

Gelios 
Відео Гуртом - дизайнер
Відео Гуртом - дизайнер


З нами з: 03.09.11
Востаннє: 02.08.17
Повідомлень: 2086

2012-11-12 20:41  
Delight`, якщо хочете якісний українізований постер:

У пошуках Немо / Finding Nemo (2003)


DеLight 
Відео Гуртом - фільмокрай
Відео Гуртом - фільмокрай


З нами з: 24.08.11
Востаннє: 16.08.17
Повідомлень: 661

2012-11-12 20:43  
Gelios
Супер, дуже вдячний! Wink (2)

Ваш часовий пояс: GMT + 2 Години

Нова тема   Відповісти