Льодовиковий період 4: Континентальний дрейф / Ice Age: Continental Drift (2012) 720p

Нові коментарі

Нова тема   Відповісти
Автор Повідомлення
Drool 
VIP


З нами з: 17.04.10
Востаннє: 18.08.17
Повідомлень: 1368

2012-10-26 20:18  
Льодовиковий період 4: Континентальний дрейф / Ice Age: Continental Drift (2012) 720p

Жанр: мультфільм, сімейний, пригоди, комедія
Країна: США



Кіностудія / кінокомпанія: Blue Sky Studios
Режисер: Стів Мартіно
Актори: Рей Романо, Квін Латіфа, Деніс Лірі, Джон Легуізамо, Азіз Ансарі, Джой Бехар, Ален Шаба

Сюжет:
Після пригод під землею пройшло сім років. Відбувся дрейф континентів. Головні герої мультфільму, відірвані від рідних, змушені використовувати айсберг в якості плоту. Вони перетинають океан і потрапляють у невідомі їм раніше землі з екзотичними тваринами і піратами, вороже налаштованими до них. Білці Скрету вдається спіймати свій жолудь, але він переміщується у нові для нього землі.

Тривалість: 01:28:41
Якість: 720p
Відео:
кодек:
розмір кадру: 1280x536
бітрейт: 4285 кб/с

Аудіо:
мова: українська
переклад: професійний дубльований
кодек: 5.1
бітрейт: 448 кб/с

Джерело озвучення:
Info
General
Unique ID : 36073355336870353663919770168456465580 (0x1B2379BBED2B72FA853576A93A754CAC)
Complete name : /media/Drool_8Gb/Ice.Age.4.Continental.Drift.2012.Ukr.Dub..720p.
Format :
File size : 2.93 GiB
Duration : 1h 28mn
Overall bit rate : 4 728 Kbps
Movie name : Льодовиковий період 4: Континентальний дрейф / Ice Age: Continental Drift (2012) 720p | video by DHT-Movies
Encoded date : UTC 2012-10-26 11:42:14
Writing application : mkvmerge v4.8.0 ('I Got The...') сборка от Aug 22 2011 13:16:28
Writing library : libebml v1.2.0 + libmatroska v1.1.0

Video
ID : 1
Format : AVC
Format/Info : Advanced Video Codec
Format profile : [email protected]
Format settings, CABAC : Yes
Format settings, ReFrames : 12 frames
Codec ID : V_MPEG4/ISO/AVC
Duration : 1h 28mn
Bit rate : 4 285 Kbps
Width : 1 280 pixels
Height : 536 pixels
Display aspect ratio : 2.35:1
Frame rate : 23.976 fps
Color space : YUV
Chroma subsampling : 4:2:0
Bit depth : 8 bits
Scan type : Progressive
Bits/(Pixel*Frame) : 0.260
Stream size : 2.59 GiB (89%)
Title : Льодовиковий період 4: Континентальний дрейф (2012) 720p | video by DHT-Movies
Writing library : core 119 r2106 07efeb4
Encoding settings : cabac=1 / ref=12 / deblock=1:-1:-1 / analyse=0x3:0x113 / me=umh / subme=11 / psy=1 / psy_rd=0.85:0.10 / mixed_ref=1 / me_range=32 / chroma_me=1 / trellis=2 / 8x8dct=1 / cqm=0 / deadzone=21,11 / fast_pskip=0 / chroma_qp_offset=-3 / threads=6 / sliced_threads=0 / nr=0 / decimate=0 / interlaced=0 / bluray_compat=0 / constrained_intra=0 / bframes=10 / b_pyramid=2 / b_adapt=2 / b_bias=0 / direct=3 / weightb=1 / open_gop=0 / weightp=2 / keyint=250 / keyint_min=24 / scenecut=40 / intra_refresh=0 / rc_lookahead=45 / rc=2pass / mbtree=1 / bitrate=4285 / ratetol=1.0 / qcomp=0.70 / qpmin=0 / qpmax=69 / qpstep=4 / cplxblur=20.0 / qblur=0.5 / ip_ratio=1.40 / aq=1:1.00

Audio
ID : 2
Format : AC-3
Format/Info : Audio Coding 3
Mode extension : CM (complete main)
Codec ID : A_AC3
Duration : 1h 28mn
Bit rate mode : Constant
Bit rate : 448 Kbps
Channel(s) : 6 channels
Channel positions : Front: L C R, Side: L R, LFE
Sampling rate : 48.0 KHz
Bit depth : 16 bits
Compression mode : Lossy
Stream size : 284 MiB (9%)
Title : Українська (дубляж)
Language : Ukrainian
Скріншоти










Походження: Відеоряд взято з ріпу
Особиста оцінка: 10 - без зайвих вагань рекомендую всім!


 Трекер:    Зареєстрований   

Завантажити / скачати мультфільм українською



відео для новачків



 Зареєстрований:   2012-10-26 20:18
 Розмір:   2.93 GB 
 Оцінка мультфільму:   9.7/10 (Голосів: 63)
   
DеLight 
Відео Гуртом - фільмокрай
Відео Гуртом - фільмокрай


З нами з: 24.08.11
Востаннє: 16.08.17
Повідомлень: 661

2012-10-26 21:14  
Drool написано:
бітрейт: 4285 кб/с

З таким бітрейтом хіба це mini? Rolleyes (2)

Drool 
VIP


З нами з: 17.04.10
Востаннє: 18.08.17
Повідомлень: 1368

2012-10-26 21:33  
Delight` написано:
З таким бітрейтом хіба це mini?

Ну, тут я через розмір файлу не посмів поставити повноцінний 720p.

DеLight 
Відео Гуртом - фільмокрай
Відео Гуртом - фільмокрай


З нами з: 24.08.11
Востаннє: 16.08.17
Повідомлень: 661

2012-10-26 21:36  
Drool написано:
Ну, тут я через розмір файлу не посмів поставити повноцінний 720p.

Так, це єдина причина, хоча все із-за тривалості.

Drool 
VIP


З нами з: 17.04.10
Востаннє: 18.08.17
Повідомлень: 1368

2012-10-26 23:28  
Delight` написано:
хоча все із-за тривалості.

Не стільки. Мультяшні текстури краще стискаються, ніж реальна картинка.

pohgejib 
VIP


З нами з: 06.06.08
Востаннє: 27.07.17
Повідомлень: 362

2012-10-27 08:39  
міні це бітрейт до 2500...
DеLight 
Відео Гуртом - фільмокрай
Відео Гуртом - фільмокрай


З нами з: 24.08.11
Востаннє: 16.08.17
Повідомлень: 661

2012-10-27 10:07  
pohgejib написано:
міні це бітрейт до 2500...

А не 3500 кб/с!?

pohgejib 
VIP


З нами з: 06.06.08
Востаннє: 27.07.17
Повідомлень: 362

2012-10-27 16:33  
Delight` написано:
А не 3500 кб/с!?

ні
ось приклад з бітрейтом 2200. як на мене, реліз потрібно замінити.

braveboy 
Відео Гуртом - команда HD
Відео Гуртом - команда HD


З нами з: 15.06.10
Востаннє: 13.08.17
Повідомлень: 949

2012-10-27 23:57  
Drool

це не mini а повноцінний 720p
прибери з назви mini

Drool 
VIP


З нами з: 17.04.10
Востаннє: 18.08.17
Повідомлень: 1368

2012-10-28 11:29  
braveboy написано:
це не mini а повноцінний 720p
прибери з назви mini

Модератор затвердив цей реліз в тому вигляді, в якому він є зараз. Без вказівки модератора я нічого міняти не буду.

braveboy 
Відео Гуртом - команда HD
Відео Гуртом - команда HD


З нами з: 15.06.10
Востаннє: 13.08.17
Повідомлень: 949

2012-10-28 17:42  
Drool написано:
Модератор затвердив цей реліз в тому вигляді, в якому він є зараз. Без вказівки модератора я нічого міняти не буду.

він помилився

hacker-90 
Новенький


З нами з: 13.10.12
Востаннє: 12.04.16
Повідомлень: 1

2013-01-16 23:10  
Полтавець Happy

Дякую за якісне відео та якісний дубляж рідною мовою Happy

atman_valery 
Частий відвідувач


З нами з: 12.01.11
Востаннє: 18.08.17
Повідомлень: 39

2013-02-09 22:11  
бабця крута!!!!!!!!!!!!!!!!!!!!!!!!!
BGD-2012 
Свій


З нами з: 06.05.12
Востаннє: 05.08.17
Повідомлень: 77

2016-01-10 00:12  
Чудове завершення серії мультів. Дякую за роздачу.
Ваш часовий пояс: GMT + 2 Години

Нова тема   Відповісти