Синдбад: Легенда семи морів / Sinbad: Legend of the Seven Seas (2003) 720p Ukr/Eng | Sub Eng

Нові коментарі

Нова тема   Відповісти
Автор Повідомлення
leroykendall 
Модератор HD


З нами з: 03.01.11
Востаннє: 04.08.17
Повідомлень: 750

2012-10-20 05:17  
Синдбад: Легенда семи морів / Sinbad: Legend of the Seven Seas (2003) 720p Ukr/Eng | Sub Eng

Синдбад: Легенда семи морів / Sinbad: Legend of the Seven Seas (2003) 720p Ukr/Eng | Sub Eng

«Stop at nothing to retrieve the Book of Peace»


Жанр: анімація, пригоди, фентезі
Країна: США






Кіностудія / кінокомпанія: DreamWorks Animation
Режисер: Патрік Гілмор (Patrick Gilmore), Тім Джонсон (Tim Johnson)
Актори: Бред Піт (Brad Pitt), Кетрін Зета-Джонс (Catherine Zeta-Jones), Мішель Пфайффер (Michelle Pfeiffer), Джозеф Файнс (Joseph Fiennes), Денніс Хазберт (Dennis Haysbert), Тімоті Вест (Timothy West), Адріано Джіанінні (Adriano Giannini), Раман Х'ю (Raman Hui), Чунг Чен (Chung Chan).

Сюжет:
Мультфільм розповідає про одну з численних пригод відомого аравійського моряка Синдбада. Пригода починається тоді, коли Еріс, богиня Хаосу, краде Книгу Миру, підставивши тим самим Синдбада і зробивши з нього злочинця. Маючи намір довести свою невинність, а також врятувати життя свого кращого друга Протея , моряк відправляється в царство Еріс, що кишить жахливими монстрами, такими як гігантські скорпіони, змії і 40-футові птахи, зроблені з льоду і снігу. Навіть якщо Синдбад зможе знешкодити всіх цих чудовиськ, йому також доведеться мати справу з магією Еріс, що володіє ефектом Яблука Розбрату, яке має здатність перетворити друзів на ворогів, коли воно кинуто посеред них. Чим же закінчиться ця подорож?


Тривалість: 01:25:06
Якість: 720p
Відео:
кодек:
розмір кадру: 1280 x 720
бітрейт: 6887 кб/с

Аудіо # 1:
мова: українська
переклад: багатоголосий закадровий
кодек: 5.1
бітрейт: 448 кб/с

Аудіо # 2:
мова: англійська
переклад: оригінал
кодек: 5.1
бітрейт: 448 кб/с

Джерело озвучення:


Субтитри:
мова: англійська
тип: програмні (м'які)
формат: *.srt


Info
Код:
General
Unique ID                        : 213924165536364691585382549758013373209 (0xA0F04BADFA89700D82F5CE65BCB07B19)
Complete name                    : V:\Sinbad. Legend of the Seven Seas (2003) [Ukr, Eng] 720p [Hurtom, rutracker] by leroykendall.
Format                           :
File size                        : 4.63 GiB
Duration                         : 1h 25mn
Overall bit rate                 : 7 770 Kbps
Movie name                       : Sinbad. Legend of the Seven Seas (2003) [Ukr, Eng] 720p [Hurtom, rutracker] by leroykendall
Encoded date                     : UTC 2012-10-17 19:06:28
Writing application              : mkvmerge v4.9.1 ('Ich will') зібрано Jul 11 2011 23:53:15
Writing library                  : libebml v1.2.1 + libmatroska v1.1.1

Video
ID                               : 1
Format                           : AVC
Format/Info                      : Advanced Video Codec
Format profile                   : [email protected]
Format settings, CABAC           : Yes
Format settings, ReFrames        : 3 frames
Codec ID                         : V_MPEG4/ISO/AVC
Duration                         : 1h 25mn
Bit rate                         : 6 887 Kbps
Width                            : 1 280 pixels
Height                           : 720 pixels
Display aspect ratio             : 16:9
Frame rate                       : 29.970 fps
Color space                      : YUV
Chroma subsampling               : 4:2:0
Bit depth                        : 8 bits
Scan type                        : Progressive
Bits/(Pixel*Frame)               : 0.249
Stream size                      : 4.00 GiB (86%)
Title                            : Sinbad. Legend of the Seven Seas (2003) 720p by leroykendall
Writing library                  : core 65 r999kMod cc51047
Encoding settings                : cabac=1 / ref=3 / deblock=1:0:0 / analyse=0x3:0x133 / me=umh / subme=6 / psy_rd=1.0:0.0 / mixed_ref=1 / me_range=16 / chroma_me=1 / trellis=1 / 8x8dct=1 / cqm=0 / deadzone=21,11 / chroma_qp_offset=-2 / threads=2 / thread_queue=2 / nr=0 / decimate=1 / mbaff=0 / bframes=3 / b_pyramid=1 / b_adapt=1 / b_bias=0 / direct=3 / wpredb=1 / keyint=250 / keyint_min=25 / scenecut=40(pre) / rc=2pass / bitrate=6887 / ratetol=1.0 / qcomp=0.60 / qpmin=10 / qpmax=51 / qpstep=4 / cplxblur=20.0 / qblur=0.5 / ip_ratio=1.40 / pb_ratio=1.30 / aq=1:1.00

Audio #1
ID                               : 2
Format                           : AC-3
Format/Info                      : Audio Coding 3
Mode extension                   : CM (complete main)
Codec ID                         : A_AC3
Duration                         : 1h 25mn
Bit rate mode                    : Constant
Bit rate                         : 448 Kbps
Channel(s)                       : 6 channels
Channel positions                : Front: L C R, Side: L R, LFE
Sampling rate                    : 48.0 KHz
Bit depth                        : 16 bits
Compression mode                 : Lossy
Stream size                      : 273 MiB (6%)
Title                            : 5.1 @ 448 kbps - багатоголосий закадровий "Новий канал"
Language                         : Ukrainian

Audio #2
ID                               : 3
Format                           : AC-3
Format/Info                      : Audio Coding 3
Mode extension                   : CM (complete main)
Codec ID                         : A_AC3
Duration                         : 1h 25mn
Bit rate mode                    : Constant
Bit rate                         : 448 Kbps
Channel(s)                       : 6 channels
Channel positions                : Front: L C R, Side: L R, LFE
Sampling rate                    : 48.0 KHz
Bit depth                        : 16 bits
Compression mode                 : Lossy
Stream size                      : 273 MiB (6%)
Title                            : 5.1 @ 448 kbps
Language                         : English

Text
ID                               : 4
Format                           : UTF-8
Codec ID                         : S_TEXT/UTF8
Codec ID/Info                    : UTF-8 Plain Text
Language                         : English


Скріншоти:






Подяки
Пану MutuLI за зведення звуку та еталонний реліз
Панам xslim та 4erkov за сирий звук
Пану Пан_Олександр за українізований постер





Джерело: &
Особиста оцінка: 8 - мені сподобалося


Срібний реліз (на рейтинг впливає 50% завантаженого)
 Трекер:    Зареєстрований   

Завантажити / скачати мультфільм українською



відео для новачків



 Зареєстрований:   2012-10-20 21:04
 Розмір:   4.63 GB 
 Оцінка мультфільму:   9.9/10 (Голосів: 16)
   
braveboy 
Відео Гуртом - команда HD
Відео Гуртом - команда HD


З нами з: 15.06.10
Востаннє: 13.08.17
Повідомлень: 949

2012-10-20 05:23  
leroykendall
в назві саби додай

leroykendall 
Модератор HD


З нами з: 03.01.11
Востаннє: 04.08.17
Повідомлень: 750

2012-10-20 05:38  
braveboy
Точно. Дякую :-)

Hanway 
Відео Гуртом - запис з ТБ
Відео Гуртом - запис з ТБ


З нами з: 20.05.11
Востаннє: 17.08.17
Повідомлень: 494

2012-10-20 10:44  
Цитата:
Frame rate : 29.970 fps

Таке дивитися неможливо Sad (1) Не можна просто взяти і змішати поля, треба відновити всі прогресивні кадри, та отримати 23.976fps

leroykendall 
Модератор HD


З нами з: 03.01.11
Востаннє: 04.08.17
Повідомлень: 750

2012-10-20 11:05  
jonas93
Дуже, навіть, я скажу можливо. Бо я дивився, і бачив гарну картинку.
А, по-друге, це єдиний якісний 720р ріп, що є в мережі.

Hanway 
Відео Гуртом - запис з ТБ
Відео Гуртом - запис з ТБ


З нами з: 20.05.11
Востаннє: 17.08.17
Повідомлень: 494

2012-10-20 11:07  
leroykendall
В мережі є оригінальний запис 1080i, було б добре ріпнути як треба. Можу дати посилання, якщо не знайдете.

leroykendall 
Модератор HD


З нами з: 03.01.11
Востаннє: 04.08.17
Повідомлень: 750

2012-10-20 11:10  
jonas93
Дякую, я знаю де взяти той 1080і.
Я не дуже розумію навіщо робити ріп, якщо той що я виклав пристойної якості.

Hanway 
Відео Гуртом - запис з ТБ
Відео Гуртом - запис з ТБ


З нами з: 20.05.11
Востаннє: 17.08.17
Повідомлень: 494

2012-10-20 11:13  
leroykendall
Якщо для вас, модератора HD, купа зайвих кадрів, чи, ще гірше, перемішаних між собою - пристойна якість, то мені вам більше нічого казати.

ratbol 
Модератор HD


З нами з: 03.02.09
Востаннє: 13.08.17
Повідомлень: 1083

2012-10-20 11:31  
jonas93
Ну і навіщо ця зайва робота, якщо це лише HDTV, от вийде блюр, тоді і зробиться все як належить.
Це ж треба і звук переробляти. Питання: чи є сенс?

Hanway 
Відео Гуртом - запис з ТБ
Відео Гуртом - запис з ТБ


З нами з: 20.05.11
Востаннє: 17.08.17
Повідомлень: 494

2012-10-20 11:38  
ratbol
Щось не схоже, що BD скоро вийде. А звук перероблювати не треба, бо схоже, що цей ріп з того самого запису.
До речі, я швидко загуглив, і відразу знайшов нормальний 720р-ріп. Щоправда його не так легко викачати.

ratbol 
Модератор HD


З нами з: 03.02.09
Востаннє: 13.08.17
Повідомлень: 1083

2012-10-20 11:46  
jonas93
Але ж ви говорили про 23,976, там буде інша тривалість, звук треба переробляти.

Hanway 
Відео Гуртом - запис з ТБ
Відео Гуртом - запис з ТБ


З нами з: 20.05.11
Востаннє: 17.08.17
Повідомлень: 494

2012-10-20 11:51  
ratbol
Тривалість при перетворенні 29,970i в 23,976p ніколи не міняється, швидкість залишається оригінальною, лише видаляються зайві кадри, що повторювалися. Читайте про Telecine - 2:3 pulldown.

leroykendall 
Модератор HD


З нами з: 03.01.11
Востаннє: 04.08.17
Повідомлень: 750

2012-10-20 14:49  
jonas93 написано:
Якщо для вас, модератора HD, купа зайвих кадрів, чи, ще гірше, перемішаних між собою

Ну-ну-ну. Давайте обійдемось без образ. Ніяких зайвих кадрів тут немає, а тим більше перемішаних між собою. Не вірите - перевірте. І все ж таки не зміг знайти в неті 720р ріпу з фпс 23,976.

oleg.plavkov 
Відео Гуртом - фільмокрай
Відео Гуртом - фільмокрай


З нами з: 04.01.12
Востаннє: 17.08.17
Повідомлень: 304

2012-10-20 15:35  
Дайте семпл тай все.
leroykendall 
Модератор HD


З нами з: 03.01.11
Востаннє: 04.08.17
Повідомлень: 750

2012-10-20 16:11  
oleg.plavkov
Дякую за слушну думку. Виклав Семпл.
Info
General
Unique ID : 178925794451991240603095668646394535978 (0x869BDAC2DC4F3C2F9476D0C7FA09202A)
Complete name : V:\Sinbad. Legend of the Seven Seas (2003) [Ukr, Eng] 720p [Hurtom, rutracker] by leroykendall.Sample.
Format :
File size : 70.1 MiB
Duration : 54s 18ms
Overall bit rate : 10.9 Mbps
Movie name : Sinbad. Legend of the Seven Seas (2003) [Ukr, Eng] 720p [Hurtom, rutracker] by leroykendall
Encoded date : UTC 2012-10-20 12:53:05
Writing application : mkvmerge v4.9.1 ('Ich will') зібрано Jul 11 2011 23:53:15
Writing library : libebml v1.2.1 + libmatroska v1.1.1

Video
ID : 1
Format : AVC
Format/Info : Advanced Video Codec
Format profile : [email protected]
Format settings, CABAC : Yes
Format settings, ReFrames : 3 frames
Codec ID : V_MPEG4/ISO/AVC
Duration : 54s 21ms
Bit rate : 9 777 Kbps
Width : 1 280 pixels
Height : 720 pixels
Display aspect ratio : 16:9
Frame rate : 29.970 fps
Color space : YUV
Chroma subsampling : 4:2:0
Bit depth : 8 bits
Scan type : Progressive
Bits/(Pixel*Frame) : 0.354
Stream size : 63.0 MiB (90%)
Title : Sinbad. Legend of the Seven Seas (2003) 720p by leroykendall

Audio #1
ID : 2
Format : AC-3
Format/Info : Audio Coding 3
Mode extension : CM (complete main)
Codec ID : A_AC3
Duration : 54s 18ms
Bit rate mode : Constant
Bit rate : 448 Kbps
Channel(s) : 6 channels
Channel positions : Front: L C R, Side: L R, LFE
Sampling rate : 48.0 KHz
Bit depth : 16 bits
Compression mode : Lossy
Delay relative to video : 2ms
Stream size : 2.88 MiB (4%)
Title : 5.1 @ 448 kbps - багатоголосий закадровий "Новий канал"
Language : Ukrainian

Audio #2
ID : 3
Format : AC-3
Format/Info : Audio Coding 3
Mode extension : CM (complete main)
Codec ID : A_AC3
Duration : 54s 18ms
Bit rate mode : Constant
Bit rate : 448 Kbps
Channel(s) : 6 channels
Channel positions : Front: L C R, Side: L R, LFE
Sampling rate : 48.0 KHz
Bit depth : 16 bits
Compression mode : Lossy
Delay relative to video : 2ms
Stream size : 2.88 MiB (4%)
Title : 5.1 @ 448 kbps
Language : English

Text
ID : 4
Format : UTF-8
Codec ID : S_TEXT/UTF8
Codec ID/Info : UTF-8 Plain Text
Language : English

Hanway 
Відео Гуртом - запис з ТБ
Відео Гуртом - запис з ТБ


З нами з: 20.05.11
Востаннє: 17.08.17
Повідомлень: 494

2012-10-20 16:32  
leroykendall написано:
Ніяких зайвих кадрів тут немає, а тим більше перемішаних між собою. Не вірите - перевірте.

Скачав семпл - кожен п'ятий кадр дублює попередній, відео здригається кожну секунду.
leroykendall написано:
І все ж таки не зміг знайти в неті 720р ріпу з фпс 23,976.

На жаль, я теж. Тож мабуть я сам зроблю 720р-ріп найближчим часом.

leroykendall 
Модератор HD


З нами з: 03.01.11
Востаннє: 04.08.17
Повідомлень: 750

2012-10-20 21:04  
20.10.2012 Торент оновлено. Українська доріжка замінена на ту, що з повним озвученням.

Ваш часовий пояс: GMT + 2 Години

Нова тема   Відповісти