Мадагаскар 3 / Madagascar 3: Europe's Most Wanted (2012) 720p Ukr/Eng | Sub Ukr/Eng

Нові коментарі

Нова тема   Відповісти
Автор Повідомлення
DеLight 
Відео Гуртом - фільмокрай
Відео Гуртом - фільмокрай


З нами з: 24.08.11
Востаннє: 16.08.17
Повідомлень: 661

2012-10-11 22:51  
Мадагаскар 3 / Madagascar 3: Europe's Most Wanted (2012) 720p Ukr/Eng | Sub Ukr/Eng

Мадагаскар 3 / Madagascar 3: Europe's Most Wanted (2012) 720p Ukr/Eng | Sub Ukr/Eng

«The world is sick. And we are the doctors.»


Альтернативні постери






Жанр: анімація, комедія, пригоди
Країна: США



Кіностудія / кінокомпанія: DreamWorks Animation, Pacific Data Images (PDI)



Ерік Дарнелл / Eric Darnell, Том МакГрат / Tom McGrath, Конрад Вернон / Conrad Vernon

Бен Стіллер / Ben Stiller, Кріс Рок / Chris Rock, Девід Швіммер / David Schwimmer, Джада Пінкетт Сміт / Jada Pinkett Smith, Саша Барон Коен / Sacha Baron Cohen, Енді Ріхтер / Andy Richter, Том МакГрат / Tom McGrath, Френсіс Макдорманд / Frances McDormand, Джессіка Честейн / Jessica Chastain, Мартін Шорт / Martin Short, Кріс Міллер / Chris Miller та інші

Лев Алекс, зебра Марті, гіппопотамиха Глорія і жираф Мельман, а також король Джуліан, Моріс, Морт і Пінгвіни все ще намагаються повернутися в Нью-Йорк. На цей раз їх шлях пройде через Європу, де вони відкриють свій цирк.



Тривалість: 01:33:24
Якість: 720p [ріп від CHD]

Відео:
кодек:
розмір кадру: 1280 x 720
бітрейт: 6047 кб/с

Аудіо #1:
мова: українська
переклад: професійний дубльований | LeDoyen Studio
кодек: 5.1
бітрейт: 640 кб/с

Аудіо #2:
мова: англійська
переклад: оригінал
кодек: 5.1
бітрейт: 1510 кб/с

Джерело озвучення:


Субтитри #1, 2: форсовані, повні
мова: українська
тип: програмні (м'які)
формат: *.srt

Субтитри #3, 4: повні, SDH
мова: англійська
тип: програмні (м'які)
формат: *.srt

Збережені оригінальні розділи як на Blu-ray


Український трейлер (HD)


Info

Код:
General
Unique ID                      : 249363407590199847641495973457329698364 (0xBB99A5370CB3D2178FBA5CFD99ECB63C)
Complete name                  : D:\Torrents\Madagascar 3. Europe's Most Wanted (2012) 720p [Ukr, Eng] [Hurtom].
Format                         :
Format version                 : Version 2
File size                      : 5.35 GiB
Duration                       : 1h 33mn
Overall bit rate               : 8 200 Kbps
Movie name                     : Madagascar 3: Europe's Most Wanted (2012) 720p [Ukr, Eng] [Hurtom] by Delight
Encoded date                   : UTC 2012-10-11 19:35:42
Writing application            : mkvmerge v5.8.0 ('No Sleep / Pillow') built on Sep  2 2012 15:37:04
Writing library                : libebml v1.2.3 + libmatroska v1.3.0

Video
ID                             : 1
Format                         : AVC
Format/Info                    : Advanced Video Codec
Format profile                 : [email protected]
Format settings, CABAC         : Yes
Format settings, ReFrames      : 9 frames
Codec ID                       : V_MPEG4/ISO/AVC
Duration                       : 1h 33mn
Bit rate                       : 6 047 Kbps
Width                          : 1 280 pixels
Height                         : 720 pixels
Display aspect ratio           : 16:9
Frame rate mode                : Constant
Frame rate                     : 23.976 fps
Color space                    : YUV
Chroma subsampling             : 4:2:0
Bit depth                      : 8 bits
Scan type                      : Progressive
Bits/(Pixel*Frame)             : 0.274
Stream size                    : 3.84 GiB (72%)
Title                          : Madagascar 3: Europe's Most Wanted (2012) 720p
Writing library                : core 125 r2208 d9d2288
Encoding settings              : cabac=1 / ref=9 / deblock=1:-3:-3 / analyse=0x3:0x113 / me=umh / subme=10 / psy=1 / psy_rd=1.10:0.10 / mixed_ref=1 / me_range=32 / chroma_me=1 / trellis=2 / 8x8dct=1 / cqm=0 / deadzone=21,11 / fast_pskip=0 / chroma_qp_offset=-2 / threads=12 / lookahead_threads=2 / sliced_threads=0 / nr=0 / decimate=1 / interlaced=0 / bluray_compat=0 / constrained_intra=0 / bframes=6 / b_pyramid=2 / b_adapt=2 / b_bias=0 / direct=3 / weightb=1 / open_gop=0 / weightp=2 / keyint=250 / keyint_min=23 / scenecut=40 / intra_refresh=0 / rc_lookahead=40 / rc=2pass / mbtree=0 / bitrate=6047 / ratetol=1.0 / qcomp=0.60 / qpmin=0 / qpmax=69 / qpstep=4 / cplxblur=20.0 / qblur=0.5 / vbv_maxrate=40000 / vbv_bufsize=30000 / nal_hrd=none / ip_ratio=1.40 / pb_ratio=1.30 / aq=1:0.90
Language                       : English
Default                        : Yes
Forced                         : No

Audio #1
ID                             : 2
Format                         : AC-3
Format/Info                    : Audio Coding 3
Mode extension                 : CM (complete main)
Format settings, Endianness    : Big
Codec ID                       : A_AC3
Duration                       : 1h 33mn
Bit rate mode                  : Constant
Bit rate                       : 640 Kbps
Channel(s)                     : 6 channels
Channel positions              : Front: L C R, Side: L R, LFE
Sampling rate                  : 48.0 KHz
Bit depth                      : 16 bits
Compression mode               : Lossy
Stream size                    : 428 MiB (8%)
Title                          : 5.1; 640 kbps; професійний дубльований {LeDoyen Studio}
Language                       : Ukrainian
Default                        : Yes
Forced                         : No

Audio #2
ID                             : 3
Format                         :
Format/Info                    : Digital Theater Systems
Codec ID                       : A_DTS
Duration                       : 1h 33mn
Bit rate mode                  : Constant
Bit rate                       : 1 510 Kbps
Channel(s)                     : 6 channels
Channel positions              : Front: L C R, Side: L R, LFE
Sampling rate                  : 48.0 KHz
Bit depth                      : 24 bits
Compression mode               : Lossy
Stream size                    : 1 009 MiB (18%)
Title                          : 5.1; 1510 kbps; original
Language                       : English
Default                        : No
Forced                         : No

Text #1
ID                             : 4
Format                         : UTF-8
Codec ID                       : S_TEXT/UTF8
Codec ID/Info                  : UTF-8 Plain Text
Title                          : forced
Language                       : Ukrainian
Default                        : Yes
Forced                         : No

Text #2
ID                             : 5
Format                         : UTF-8
Codec ID                       : S_TEXT/UTF8
Codec ID/Info                  : UTF-8 Plain Text
Title                          : full
Language                       : Ukrainian
Default                        : No
Forced                         : No

Text #3
ID                             : 6
Format                         : UTF-8
Codec ID                       : S_TEXT/UTF8
Codec ID/Info                  : UTF-8 Plain Text
Title                          : full
Language                       : English
Default                        : No
Forced                         : No

Text #4
ID                             : 7
Format                         : UTF-8
Codec ID                       : S_TEXT/UTF8
Codec ID/Info                  : UTF-8 Plain Text
Title                          : SDH
Language                       : English
Default                        : No
Forced                         : No

Menu
00:00:00.000                   : en:00:00:00.000
00:05:16.316                   : en:00:05:16.316
00:10:51.985                   : en:00:10:51.985
00:19:46.310                   : en:00:19:46.310
00:27:49.835                   : en:00:27:49.835
00:32:50.552                   : en:00:32:50.552
00:40:34.974                   : en:00:40:34.974
00:46:51.976                   : en:00:46:51.976
00:52:00.534                   : en:00:52:00.534
00:58:55.157                   : en:00:58:55.157
01:00:23.411                   : en:01:00:23.411
01:04:19.314                   : en:01:04:19.314
01:10:59.672                   : en:01:10:59.672
01:15:30.317                   : en:01:15:30.317
01:21:09.782                   : en:01:21:09.782
01:22:48.630                   : en:01:22:48.630

Світлини















Джерело: &


 Трекер:    Зареєстрований   

Завантажити / скачати мультфільм українською



відео для новачків



 Зареєстрований:   2012-10-11 22:51
 Розмір:   5.35 GB 
 Оцінка мультфільму:   9.9/10 (Голосів: 50)
   
DеLight 
Відео Гуртом - фільмокрай
Відео Гуртом - фільмокрай


З нами з: 24.08.11
Востаннє: 16.08.17
Повідомлень: 661

2012-10-11 22:53  
Всім приємного перегляду!!! Мульт як завжди на висоті!
pentagon 
Частий відвідувач


З нами з: 08.12.09
Востаннє: 14.08.17
Повідомлень: 36

2012-10-11 22:55  
Ну і? Happy
BMK12 
Відео Гуртом - підтримка та поширення
Відео Гуртом - підтримка та поширення


З нами з: 13.04.09
Востаннє: 16.08.17
Повідомлень: 3110

2012-10-11 23:04  
Чекаємо роздачі)
bot 
робот


З нами з: 30.09.07
Востаннє: 26.05.05
Повідомлень: 17362

2012-10-11 23:11  
Тему перенесено з Фільми в HD до форуму Мультфільми в HD


Delight`

flaxyboy 
Новенький


З нами з: 16.09.11
Востаннє: 07.01.17
Повідомлень: 1

2012-10-12 02:26  
Нарешті дочекався!Дякую)
Sofia1992 
Новенький


З нами з: 22.07.11
Востаннє: 15.08.17
Повідомлень: 4

2012-11-10 23:49  
А чому відео в HD на флешку не хоче кидатись?
BMK12 
Відео Гуртом - підтримка та поширення
Відео Гуртом - підтримка та поширення


З нами з: 13.04.09
Востаннє: 16.08.17
Повідомлень: 3110

2012-11-10 23:51  
Файлова система флешки FAT чи NTFS?
Sofia1992 
Новенький


З нами з: 22.07.11
Востаннє: 15.08.17
Повідомлень: 4

2012-11-12 22:08  
FAT 32
BMK12 
Відео Гуртом - підтримка та поширення
Відео Гуртом - підтримка та поширення


З нами з: 13.04.09
Востаннє: 16.08.17
Повідомлень: 3110

2012-11-12 22:14  
На жаль, ця файлова система не підтримує файли розміром більше 4 ГБ.
Sofia1992 
Новенький


З нами з: 22.07.11
Востаннє: 15.08.17
Повідомлень: 4

2012-11-12 22:22  
Дякую)
[email protected] 
Новенький


З нами з: 08.01.13
Востаннє: 13.08.17
Повідомлень: 24

2013-01-30 00:31  
Sofia1992
зміни на NTFS

BGD-2012 
Свій


З нами з: 06.05.12
Востаннє: 05.08.17
Повідомлень: 77

2016-01-13 23:08  
Нарешті продовження. Оце так відірвались по повній. Дякую!
Ваш часовий пояс: GMT + 2 Години

Нова тема   Відповісти