Zymosis - Elements into Data (2008) [FLAC] | Ambient / Chillout

Нові коментарі

Нова тема   Відповісти
Останній раз роздавалося dez (2017-08-17)
Автор Повідомлення
ssTAss 
Модератор музики


З нами з: 05.07.08
Востаннє: 17.08.17
Повідомлень: 11750

2012-10-06 18:16  
Zymosis - Elements into Data (2008) [FLAC] | Ambient / Chillout

Zymosis - Elements into Data (2008) [FLAC] | Ambient / Chillout


Стиль: Psychedelic, Ambient, Chillout
Країна, місто: Україна, Київ
Сайти: Офіційний сайт
Видавець: SUNLINE RECORDS
Виконавці:
Dimitro (Дмитро Ліхачьов)
Gree_shanti (Григорій Собінов)
Пісні:
    1. 3 Ways To The Moon
    2. Aftersun
    3. Vitaro
    4. Architectural (Live vocal version)
    5. Solar Quest
    6. Usual Miracle
    7. Anterra
    8. Artificial Silence
    9. Needle
log
Exact Audio Copy V0.99 prebeta 3 from 28. July 2007

EAC extraction logfile from 19. September 2009, 13:46

Zymosis / Elements into Data

Used drive : _NEC DVD_RW ND-3540A Adapter: 0 ID: 2

Read mode : Secure
Utilize accurate stream : Yes
Defeat audio cache : Yes
Make use of C2 pointers : No

Read offset correction : 48
Overread into Lead-In and Lead-Out : No
Fill up missing offset samples with silence : Yes
Delete leading and trailing silent blocks : No
Null samples used in CRC calculations : Yes
Used interface : Installed external ASPI interface
Gap handling : Appended to previous track

Used output format : User Defined Encoder
Selected bitrate : 768 kBit/s
Quality : High
Add ID3 tag : No
Command line compressor : C:\Program Files\Exact Audio Copy\FLAC\FLAC.EXE
Additional command line options : -6 -V -T "ARTIST=%a" -T "TITLE=%t" -T "ALBUM=%g" -T "DATE=%y" -T "TRACKNUMBER=%n" -T "GENRE=%m" -T "COMMENT=%e" %s -o %d

TOC of the extracted CD

Track | Start | Length | Start sector | End sector
---------------------------------------------------------
1 | 0:00.00 | 7:36.74 | 0 | 34273
2 | 7:36.74 | 9:14.58 | 34274 | 75881
3 | 16:51.57 | 6:21.16 | 75882 | 104472
4 | 23:12.73 | 7:48.53 | 104473 | 139625
5 | 31:01.51 | 8:24.22 | 139626 | 177447
6 | 39:25.73 | 8:42.50 | 177448 | 216647
7 | 48:08.48 | 6:33.32 | 216648 | 246154
8 | 54:42.05 | 10:42.53 | 246155 | 294357
9 | 65:24.58 | 6:34.20 | 294358 | 323927

Track 1

Filename C:\Zymosis - Elements Into Data\01 - 3 Ways To The Moon.wav

Pre-gap length 0:00:02.00

Peak level 96.6 %
Track quality 100.0 %
Test CRC 83047997
Copy CRC 83047997
Accurately ripped (confidence 4) [EA2E6F79]
Copy OK

Track 2

Filename C:\Zymosis - Elements Into Data\02 - Aftersun.wav

Peak level 95.8 %
Track quality 100.0 %
Test CRC 1F1B5839
Copy CRC 1F1B5839
Accurately ripped (confidence 4) [24DE29FF]
Copy OK

Track 3

Filename C:\Zymosis - Elements Into Data\03 - Vitaro.wav

Peak level 95.5 %
Track quality 99.9 %
Test CRC 456F7DFB
Copy CRC 456F7DFB
Accurately ripped (confidence 4) [8892A1A3]
Copy OK

Track 4

Filename C:\Zymosis - Elements Into Data\04 - Architectural (Live vocal version).wav

Peak level 96.0 %
Track quality 100.0 %
Test CRC F87CF7A6
Copy CRC F87CF7A6
Accurately ripped (confidence 4) [47783FDD]
Copy OK

Track 5

Filename C:\Zymosis - Elements Into Data\05 - Solar Quest.wav

Peak level 95.8 %
Track quality 100.0 %
Test CRC 8B194C62
Copy CRC 8B194C62
Accurately ripped (confidence 4) [5934A95D]
Copy OK

Track 6

Filename C:\Zymosis - Elements Into Data\06 - Usual Miracle.wav

Peak level 96.7 %
Track quality 99.9 %
Test CRC E0E5ECF2
Copy CRC E0E5ECF2
Accurately ripped (confidence 4) [F8F57636]
Copy OK

Track 7

Filename C:\Zymosis - Elements Into Data\07 - Anterra.wav

Peak level 96.0 %
Track quality 100.0 %
Test CRC 4DD1AFB4
Copy CRC 4DD1AFB4
Accurately ripped (confidence 4) [25DAB7C6]
Copy OK

Track 8

Filename C:\Zymosis - Elements Into Data\08 - Artificial Silence.wav

Peak level 96.1 %
Track quality 100.0 %
Test CRC A9649E92
Copy CRC A9649E92
Accurately ripped (confidence 4) [76BB653A]
Copy OK

Track 9

Filename C:\Zymosis - Elements Into Data\09 - Needle.wav

Peak level 95.7 %
Track quality 100.0 %
Test CRC 208B8F69
Copy CRC 208B8F69
Accurately ripped (confidence 4) [1E90C2FD]
Copy OK

All tracks accurately ripped

No errors occurred

End of status report
audiochecker
AUDIOCHECKER v2.0 beta (build 457) - by Dester - [email protected]
~~~~~~~~~~~~~~~~~~~~~~~~~~~~~~~~~~
-=== DO NOT EDIT THIS FILE! ===-

Path: ...\Zymosis - Elements Into Data

1 -=- 01 - 3 Ways To The Moon.flac -=- CDDA (100%)
2 -=- 02 - Aftersun.flac -=- CDDA (100%)
3 -=- 03 - Vitaro.flac -=- MPEG (95%)
4 -=- 04 - Architectural (Live vocal version).flac -=- CDDA (100%)
5 -=- 05 - Solar Quest.flac -=- CDDA (100%)
6 -=- 06 - Usual Miracle.flac -=- CDDA (100%)
7 -=- 07 - Anterra.flac -=- MPEG (95%)
8 -=- 08 - Artificial Silence.flac -=- CDDA (100%)
9 -=- 09 - Needle.flac -=- CDDA (100%)

Summary 78,89% CDDA

259476468
Тривалість: 01:11:59
Мова: відсутня
Аудіо-кодек: FLAC
Бітрейт: 865-1037 кб/с
Джерело: інтернет
Додаткова інформація:
Zymosis - один з найперспективніших українських psytrance проектів. В музиці колективу елементи глибокого chill, ambient і downtempo звучання грамотно поєднуються з яскравими, мелодійними гармоніями і драйвом. Музиканти Zymosis використовують нестандартні підходи до створення композицій, придаючи своєму звучанню оригінальність і довершеність.


Якщо Ви справді бажаєте підтримати українське - після прослуховування, якщо музика вам сподобалась,
придбайте ліцензійний диск.
Підтримаймо вітчизняних виконавців!


Срібний реліз (на рейтинг впливає 50% завантаженого)
 Трекер:    Зареєстрований   

Завантажити / скачати українську музику



відео для новачків



 Зареєстрований:   2012-10-06 18:16
 Розмір:   472 MB 
 Оцінка музики:   5.5/10 (Голосів: 6)
   
BMK12 
Відео Гуртом - підтримка та поширення
Відео Гуртом - підтримка та поширення


З нами з: 13.04.09
Востаннє: 16.08.17
Повідомлень: 3110

2012-10-16 22:38  
Це справді українська група? Навіть не думав що в нас таке є, а головне - звучить дуже-дуже не погано (принаймні те, що поки прослухав). Якщо так і далі буде - то це просто клас і треба буде якось їх підтримати.
stalker456 
Поважний учасник


З нами з: 18.10.09
Востаннє: 13.05.17
Повідомлень: 211

2012-11-11 18:11  
BMK12, раджу послухати його новий альбом "Between Two Points". Дуже якісна музика.
ssTAss 
Модератор музики


З нами з: 05.07.08
Востаннє: 17.08.17
Повідомлень: 11750

2012-11-11 20:45  
stalker456 написано:
раджу послухати його новий альбом "Between Two Points"

https://toloka.to/t41350

BMK12 
Відео Гуртом - підтримка та поширення
Відео Гуртом - підтримка та поширення


З нами з: 13.04.09
Востаннє: 16.08.17
Повідомлень: 3110

2012-11-11 20:51  
Гаразд, спробуємо)
Ваш часовий пояс: GMT + 2 Години

Нова тема   Відповісти