Межа (Сезон 5) / Fringe (Season 5) (2012-2013) 720p Ukr/Eng | Sub Eng

Нові коментарі

Нова тема   Відповісти
Автор Повідомлення
Killrocker 
Свій


З нами з: 04.08.10
Востаннє: 11.08.19
Повідомлень: 89

2012-10-01 21:23  
Межа (Сезон 5) / Fringe (Season 5) (2012-2013) 720p Ukr/Eng | Sub Eng

Межа (Сезон 5) / Fringe (Season 5) (2012-2013) 720p Ukr/Eng | Sub Eng


Жанр: фантастика, трилер, містика, детектив
Країна: США



Кіностудія / кінокомпанія: Bad Robot, Warner Bros. Television / FOX
Режисер: Дж. Дж. Абрамс, Алекс Курцман, Роберто Орчі.
Актори: Анна Торв (Олівія Данем) / Anna Torv, Джошуа Джексон (Пітер Бішоп) / Joshua Jackson, Джон Нобл (Уолтер Бішоп) / John Noble, Ланс Реддік (Філліп Бройлз) / Lance Reddick, Джесіка Ніколь (Астрід Фарнсворт) / Jasika Nicole, Блейр Браун (Ніна Шарп) / Blair Brown, Кірк Акеведо (Чарлі Френсіс) / Kirk Acevedo, Сет Ґейбл (Агент Лінкольн Лі) / Seth Gabel, та інші.

Сюжет:
У серіалі «Межа» йдеться про спеціального агента ФБР Олівію Данем (англ. Olivia Dunham), божевільного вченого Волтера Бішопа (англ. Walter Bishop) і його сина Пітера (англ. Peter Bishop), які досліджують аспекти науки за гранню (телепатія, левітація, невидимість, реінкарнація, генетичні мутації тощо). Команді також допомагають Астрід Фансфорд (Jasika Nicole), Броїлз (Lance Reddick). Відбувається низка досить загадкових подій, названі «Зразком» (в іншому перекладі — «Схемою») (наприклад, новонароджена дитина, за лічені хвилини дорослішає і вмирає; автобус наповнюється дивною речовиною, яка миттєво твердне, а пасажири стають як москіти в янтарі), так, ніби хтось експериментує, але вже над цілим світом, а Олівія, Пітер і Волтер беруться за розслідування цих дивних подій, щоб визначити їхнє джерело. Вони виявляють зв'язок «Зразка» з корпорацією під назвою «Месів Дайнемікс» (англ. Massive Dynamics), яка є провідною глобальною дослідницькою компанією з безліччю патентів на багато нових і важливих технологій.


Тривалість: 1 серія: ~ 43:00 (цілком серій: 13)
Перелік серій
1 Перехідний об'єднувач думок одинадцятої моделі / Transilience Thought Unifier Model-11
2 Безпам’яття / In Absentia
3 Літописець / The Recordist
4 Куля, що врятувала світ / The Bullet That Saved the World
5 Початок історії / An Origin Story
6 Про задзеркалля і знахідку Волтера / Through the Looking Glass and What Walter Found There
7 П'ять-двадцять-десять / Five-Twenty-Ten
8 Рід людський / The Human Kind
9 Чорна кислота / Black Blotter
10 Аномалія XB-6783746 / Anomaly XB-6783746
11 Хлопчик має жити / The Boy Must Live
12 Свобода / Liberty
13 Ворог долі / An Enemy of Fate
Якість: 720p
Відео:
кодек:
розмір кадру: 1280x720
бітрейт: ~4048 кб/с

Аудіо # 1:
мова: українська
переклад: багатоголосний закадровий
кодек: 5.1
бітрейт: 384 кб/с

Аудіо # 2:
мова: англійська
переклад: оригінал
кодек: 5.1
бітрейт: 384 кб/с
Info

General
Unique ID : 197739312613511083468380488117547388568 (0x94C334D25652BAD2B264665A675B4E98)
Format :
Format version : Version 2
File size : 1.49 GiB
Duration : 43mn 24s
Overall bit rate : 4 914 Kbps
Movie name : UATEAM.TV
Encoded date : UTC 2012-10-01 17:26:40
Writing application : v2.9.0 ('Moanin'') built on May 22 2009 17:46:31
Writing library : libebml v0.7.7 + v0.8.1

Video
ID : 1
Format : AVC
Format/Info : Advanced Video Codec
Format profile : [email protected]
Format settings, CABAC : No
Format settings, ReFrames : 2 frames
Codec ID : V_MPEG4/ISO/AVC
Duration : 43mn 24s
Bit rate : 4 048 Kbps
Width : 1 280 pixels
Height : 720 pixels
Display aspect ratio : 16:9
Frame rate mode : Constant
Frame rate : 23.976 fps
Color space : YUV
Chroma subsampling : 4:2:0
Bit depth : 8 bits
Scan type : Progressive
Bits/(Pixel*Frame) : 0.183
Stream size : 1.23 GiB (82%)
Title : 720p H264
Language : English
Default : Yes
Forced : Yes
Color primaries : BT.709
Transfer characteristics : BT.709
Matrix coefficients : BT.709

Audio #1
ID : 2
Format : AC-3
Format/Info : Audio Coding 3
Mode extension : CM (complete main)
Format settings, Endianness : Big
Codec ID : A_AC3
Duration : 43mn 24s
Bit rate mode : Constant
Bit rate : 384 Kbps
Channel(s) : 6 channels
Channel positions : Front: L C R, Side: L R, LFE
Sampling rate : 48.0 KHz
Bit depth : 16 bits
Compression mode : Lossy
Stream size : 119 MiB (8%)
Title : UATEAM.TV
Language : Ukrainian
Default : Yes
Forced : No

Audio #2
ID : 3
Format : AC-3
Format/Info : Audio Coding 3
Mode extension : CM (complete main)
Format settings, Endianness : Big
Codec ID : A_AC3
Duration : 43mn 24s
Bit rate mode : Constant
Bit rate : 384 Kbps
Channel(s) : 6 channels
Channel positions : Front: L C R, Side: L R, LFE
Sampling rate : 48.0 KHz
Bit depth : 16 bits
Compression mode : Lossy
Stream size : 119 MiB (8%)
Title : DD5.1 @ 384 Kb/s
Language : English
Default : No
Forced : Yes
Переклад і озвучення:
Студія "Омікрон" на замовлення UA Team
Світлини

Межа (Сезон 5) / Fringe (Season 5) (2012-2013) 720p Ukr/Eng | Sub Eng

Межа (Сезон 5) / Fringe (Season 5) (2012-2013) 720p Ukr/Eng | Sub Eng

Межа (Сезон 5) / Fringe (Season 5) (2012-2013) 720p Ukr/Eng | Sub Eng

23.01
У серіях 3-6, 8-13 відеоряд замінено на 720p. Додані англійські субтитри.


Особиста оцінка: 10 - Досить цікавий серіал


Авторський реліз (завантажувати можна без реєстрації)
 Трекер:    Зареєстрований   

Завантажити / скачати серіал українською



відео для новачків



 Зареєстрований:   2013-01-23 01:18
 Розмір:   18.93 GB 
 Оцінка серіалу:   9.9/10 (Голосів: 32)
   
kino. 
Модератор відео


З нами з: 27.06.10
Востаннє: 14.10.19
Повідомлень: 2887

2012-10-01 22:48  
Оформи назву згідно правил ,зроби правильні скріншоти і перениси тему в відповідний розділ.
webKnjaZ 
Свій


З нами з: 26.06.09
Востаннє: 28.09.19
Повідомлень: 118

2012-10-02 08:59  
Killrocker
ось постер без дати.
PNG Full Size
JPG Full Size
JPG 400px

bot 
робот


З нами з: 30.09.07
Востаннє: 26.05.05
Повідомлень: 22282

2012-10-02 14:58  
Тему перенесено з Інше до форуму Серіали в HD


Killrocker

ratbol 
Модератор HD


З нами з: 03.02.09
Востаннє: 14.10.19
Повідомлень: 1076

2012-10-09 00:45  
Додайте звіт медіаінфо однієї з серій та витягніть скріншоти з-під спойлера, оскільки вони в мініатюрі.
stopanko 
Частий відвідувач


З нами з: 30.10.09
Востаннє: 11.10.19
Повідомлень: 29

2012-10-09 13:22  
А трошки меншої якості серії будуть?
Killrocker 
Свій


З нами з: 04.08.10
Востаннє: 11.08.19
Повідомлень: 89

2012-10-09 15:20  
stopanko
Осьhttps://toloka.to/t40182

webKnjaZ 
Свій


З нами з: 26.06.09
Востаннє: 28.09.19
Повідомлень: 118

2012-10-11 20:45  
Killrocker
У розділі Сюжет ти випадково вставив лінк на мій постер ^_^
Killrocker написано:
Сюжет:
..., а пасажири стаютhttp://uateam.tv/images/posters/fringe/Fringe-UKR-S5-localization-by-webknjaz.pngь як москіти в янтарі), так, ніби ....

MAKAPOHHIK 
Відео Гуртом - фільмокрай
Відео Гуртом - фільмокрай


З нами з: 04.01.09
Востаннє: 14.10.19
Повідомлень: 932

2012-11-07 15:58  
Killrocker написано:
Додано п’яту серію. Торрент перезалито

Назву тоді теж підправ ;-)

Killrocker 
Свій


З нами з: 04.08.10
Востаннє: 11.08.19
Повідомлень: 89

2012-11-07 18:41  
Забув виправити. Дякую
Оповідач 
Поважний учасник


З нами з: 13.03.11
Востаннє: 13.09.19
Повідомлень: 206

2012-11-13 16:37  
Завжди радий качати серіали в такій якості!!!
Stepaniv 
Поважний учасник


З нами з: 08.10.09
Востаннє: 13.10.19
Повідомлень: 248

2012-11-22 22:22  
З якою періодичністю будуть добавлятися нові серії?
Stepaniv 
Поважний учасник


З нами з: 08.10.09
Востаннє: 13.10.19
Повідомлень: 248

2012-12-03 23:05  
Коли нові серії будуть?
Killrocker 
Свій


З нами з: 04.08.10
Востаннє: 11.08.19
Повідомлень: 89

2012-12-11 13:23  
Stepaniv
Серії з’являються без якоїсь періодичності. http://en.wikipedia.org/wiki/Fringe_%28season_5%29 ось посилання на якому єдати воходу серій, українською з’являються через 1-2 дні.

KoljaLevko 
Свій


З нами з: 29.03.10
Востаннє: 13.10.19
Повідомлень: 54

2013-01-17 20:11  
Серії 3-6, 8-9 з картинкою 1080p, комп'ютер не тягне, дурно вантажив.
За решту серій не знаю, не встиг завантажити.
Info
General
Unique ID : 208862148813426231513655584013308418262 (0x9D2162FC78478853B4C69EB1CD7058D6)
Format :
Format version : Version 2
File size : 1.77 GiB
Duration : 43mn 51s
Overall bit rate : 5 787 Kbps
Movie name : UATEAM.TV
Encoded date : UTC 2012-12-10 21:04:51
Writing application : v2.9.0 ('Moanin'') built on May 22 2009 17:46:31
Writing library : libebml v0.7.7 + v0.8.1

Video
ID : 1
Format : AVC
Format/Info : Advanced Video Codec
Format profile : [email protected]
Format settings, CABAC : Yes
Format settings, ReFrames : 4 frames
Codec ID : V_MPEG4/ISO/AVC
Duration : 43mn 51s
Bit rate : 4 904 Kbps
Width : 1 920 pixels
Height : 1 080 pixels
Display aspect ratio : 16:9
Frame rate mode : Constant
Frame rate : 23.976 fps
Color space : YUV
Chroma subsampling : 4:2:0
Bit depth : 8 bits
Scan type : Progressive
Bits/(Pixel*Frame) : 0.099
Stream size : 1.50 GiB (85%)
Title : Video
Language : English
Default : Yes
Forced : Yes
Color primaries : BT.709
Transfer characteristics : BT.709
Matrix coefficients : BT.709

Audio #1
ID : 2
Format : AC-3
Format/Info : Audio Coding 3
Mode extension : CM (complete main)
Format settings, Endianness : Big
Codec ID : A_AC3
Duration : 43mn 51s
Bit rate mode : Constant
Bit rate : 384 Kbps
Channel(s) : 6 channels
Channel positions : Front: L C R, Side: L R, LFE
Sampling rate : 48.0 KHz
Bit depth : 16 bits
Compression mode : Lossy
Stream size : 120 MiB (7%)
Title : UATEAM.TV
Language : Ukrainian
Default : Yes
Forced : No

Audio #2
ID : 3
Format : AC-3
Format/Info : Audio Coding 3
Mode extension : CM (complete main)
Format settings, Endianness : Big
Codec ID : A_AC3
Duration : 43mn 51s
Bit rate mode : Constant
Bit rate : 384 Kbps
Channel(s) : 6 channels
Channel positions : Front: L C R, Side: L R, LFE
Sampling rate : 48.0 KHz
Bit depth : 16 bits
Compression mode : Lossy
Stream size : 120 MiB (7%)
Title : English 5.1
Language : English
Default : No
Forced : Yes

Leoriso 
Новенький


З нами з: 10.03.10
Востаннє: 27.09.19
Повідомлень: 8

2013-01-20 16:46  
Якість і розмір супер ! Дякую ! Happy
KoljaLevko 
Свій


З нами з: 29.03.10
Востаннє: 13.10.19
Повідомлень: 54

2013-01-21 22:11  
напевно треба вказати два розміри картинки?
і куди дивиться модератор?
а до мене через кожну дрібницю ... . несправедливо!

Killrocker 
Свій


З нами з: 04.08.10
Востаннє: 11.08.19
Повідомлень: 89

2013-01-22 01:39  
KoljaLevko
Вибачай, але в мене зараз нема часу на це.

ratbol 
Модератор HD


З нами з: 03.02.09
Востаннє: 14.10.19
Повідомлень: 1076

2013-01-22 11:51  
KoljaLevko
Модератор не зобов'язаний перекачувати все підряд, щоб перевірити. Модератор покладається на звіт медіаінфо, проте, якщо це серіал, і звіт медіаінфо лише до однієї з серій, то які можуть бути розмови.
Killrocker
Вказати через кому додатковий розмір кадру, в дужках к-сть епізодів, якщо їх декілька.
А, взагалі, у роздачі 720р повинні бути 720р, а не 1080р.

Alien8 
Частий відвідувач


З нами з: 12.07.10
Востаннє: 28.06.19
Повідомлень: 46

2013-01-29 02:31  
Перші три сезони Межі просто надзвичайно цікаві, на мою думку.
Хтось вже дивився п'ятий? Така ж маячня як четвертий чи змогли витягнути?

don pedro 
Попереджень: 1
Попереджень: 1 


З нами з: 29.06.11
Востаннє: 14.10.19
Повідомлень: 14590

2013-01-29 02:50  
Alien8
Досить маячно, штучно й надумано. Але є й цікаві моменти. Зрештою,Спостерігачі захопили Землю. Якщо ви фанат - дивитись обов'язково.

Alien8 
Частий відвідувач


З нами з: 12.07.10
Востаннє: 28.06.19
Повідомлень: 46

2013-02-09 00:15  
Я був фанатом до перегляду четвертого сезону. Досі деколи наспівую пісеньку Волтерового сусіда з лікарні.
mrpetry 
Новенький


З нами з: 15.05.11
Востаннє: 14.10.19
Повідомлень: 9

2013-03-01 23:55  
реліз не програється на битових плеєрах :(
vovkulak88 
Новенький


З нами з: 08.09.09
Востаннє: 12.10.19
Повідомлень: 19

2013-05-26 13:21  
Ау, станьте хто-небудь на роздачу. Додивлююсь четвертий сезон, а 5-й ще не скачаний. Ви ж не хочете з мене познущатись? Happy
sergeyfitis 
Новенький


З нами з: 23.11.10
Востаннє: 12.10.19
Повідомлень: 5

2014-12-16 20:17  
Агов, станьте хто-небудь на роздачу, будь ласка
chіef 
Поважний учасник


З нами з: 20.04.15
Востаннє: 14.10.19
Повідомлень: 224

2016-02-05 00:11  
Шкода, що у майбутньому не буде ні одної дівчини, чи хоч жінки) Серйозно, за весь серіал, я не побачив жодної жінки спостерігача)
Є море неточностей але це все можна пробачити
Серіал дуже сподобався. 5+

Ваш часовий пояс: GMT + 2 Години

Нова тема   Відповісти