Дельфін: Історія мрійника / El delfín: La historia de un soñador (2009) Remux Ukr/Spa/Eng | Sub Eng

Нові коментарі

Нова тема   Відповісти
Останній раз роздавалося Libra73 (2017-08-18)
Автор Повідомлення
urij546724 
Відео Гуртом - фільмокрай
Відео Гуртом - фільмокрай


З нами з: 16.03.10
Востаннє: 19.08.17
Повідомлень: 5219

2012-09-18 21:03  
Дельфін: Історія мрійника / El delfín: La historia de un soñador (2009) Remux Ukr/Spa/Eng | Sub Eng

Альтернативні постери:


Слоган:
«Подорож на хвилі мрії!»


Жанр: анімація, пригодницький, сімейний
Країна: Перу, Німеччина, Італія



Кіностудія / кінокомпанія: Passworld, Dolphin-Films, DDG
Режисер: Едуардо Шульдт (Eduardo Schuldt)
Актори: Роббі Деймонд (Robbie Daymond), Дебра Л. Рефаші (Debra L. Repashy), Майкл Феррері (Michael Ferreri), Стівен Буз (Steven Booth), Мерилін А. Білон (Marilyn A. Billone), Діно Ґервасоні (Dino Gervasoni), Корі Джей. Хольтцберг (Corey J. Holtzberg)...
Усі актори:
Роббі Деймонд (Robbie Daymond), Дебра Л. Рефаші (Debra L. Repashy), Майкл Феррері (Michael Ferreri), Стівен Буз (Steven Booth), Мерилін А. Білон (Marilyn A. Billone), Діно Ґервасоні (Dino Gervasoni), Корі Джей. Хольтцберг (Corey J. Holtzberg), Мелісса ЛаФоур (Melissa LaFore), Діна Монако-Боланд (Dina Monaco-Boland), Брайан В. Робертс (Brian W. Roberts)
Сюжет:
Дивовижна історія дельфіна Даніеля, який відправляється в неймовірну подорож по океану, де його підстерігають різні небезпеки.

«Дельфін: Історія мрійника» - красива, яскрава і добра стрічка про мрію, яка багатьом сподобається. Мрії допомагають нам жити. І нам треба прагнути до того, про що ми мріємо.

Мультфільм знято за мотивами бестселера Серхіо Бамберена "Дельфін: Історія мрійника".


Бюджет: 3 000 000 доларів
Назва фільму у інших країнах
Delfín, príbeh o snílkovi
Чехія


Delfin Plum
Польща


Delfinas: svajotojo istorija
Литва


Der Delfin - Die Geschichte eines Träumers
Німеччина


Halomo shel dolphin
Ізраїль (Назва на Івриті)


O Golfinho - A História de Um Sonhador
Бразилія


The Dolphin: Story of a Dreamer
Міжнародна (Англійська назва)


Дельфин: История мечтателя
Росія
Media info
General
ID : 1 (0x1)
Complete name : D:\El delfin La historia de un sonador (2009) [ukr_1+1_spa_AC3_5.1] Remux [Hurtom] by urij546724.m2ts
Format : BDAV
Format/Info : Blu-ray Video
File size : 20.2 GiB
Duration : 1h 27mn
Overall bit rate mode : Variable
Overall bit rate : 33.0 Mbps
Maximum Overall bit rate : 35.5 Mbps

Video
ID : 4113 (0x1011)
Menu ID : 1 (0x1)
Format : AVC
Format/Info : Advanced Video Codec
Format profile : [email protected]
Format settings, CABAC : Yes
Format settings, ReFrames : 2 frames
Format settings, GOP : M=1, N=10
Codec ID : 27
Duration : 1h 27mn
Bit rate mode : Variable
Bit rate : 28.1 Mbps
Width : 1 920 pixels
Height : 1 080 pixels
Display aspect ratio : 16:9
Frame rate : 23.976 fps
Color space : YUV
Chroma subsampling : 4:2:0
Bit depth : 8 bits
Scan type : Progressive
Bits/(Pixel*Frame) : 0.565
Stream size : 17.2 GiB (85%)

Audio #1
ID : 4352 (0x1100)
Menu ID : 1 (0x1)
Format :
Format/Info : Digital Theater Systems
Codec ID : 130
Duration : 1h 27mn
Bit rate mode : Constant
Bit rate : 1 510 Kbps
Channel(s) : 6 channels
Channel positions : Front: L C R, Side: L R, LFE
Sampling rate : 48.0 KHz
Bit depth : 24 bits
Compression mode : Lossy
Stream size : 948 MiB (5%)
Language : Ukrainian

Audio #2
ID : 4353 (0x1101)
Menu ID : 1 (0x1)
Format :
Format/Info : Digital Theater Systems
Format profile : MA / Core
Muxing mode : Stream extension
Codec ID : 134
Duration : 1h 27mn
Bit rate mode : Variable
Bit rate : 2 047 Kbps / 1 510 Kbps
Channel(s) : 6 channels
Channel positions : Front: L C R, Side: L R, LFE
Sampling rate : 48.0 KHz
Bit depth : 16 bits
Compression mode : Lossless / Lossy
Language : Spanish

Text #1
ID : 4608 (0x1200)
Menu ID : 1 (0x1)
Format : PGS
Codec ID : 144
Language : English

Text #2
ID : 4609 (0x1201)
Menu ID : 1 (0x1)
Format : PGS
Codec ID : 144
Delay relative to video : 194ms
Language : English
Тривалість: 01:27:45
Якість: Remux
Відео:
кодек:
розмір кадру: 1920 х 1080
бітрейт: ~ 28.1 мб/с
частота кадрів: 23.976 к/с (fps)

Аудіо #1:
мова: українська
переклад: двоголосий закадровий
кодек: 5.1
бітрейт: 1510 кб/с
запис звуку з каналу:

Аудіо #2:
мова: іспанська
переклад: оригінал
кодек: -HD 5.1
бітрейт: 4027 кб/с

Аудіо #2 (окремо):
мова: англійська
переклад: професійний дубльований
кодек: 5.1
бітрейт: 1510 кб/с
завантажити: Джерело 1, Джерело 2, Джерело 3, Джерело 4, назва El delfin La historia de un sonador (2009).01h27m45s.[eng.5.1-1510].23.976fps.[Hurtom-urij546724].

Субтитри:
мова: англійська
тип: перендерні
формат: *.pgs

Скріншоти:





Трейлери:



Семпл
Джерело 1_________Джерело 2_________Джерело 3_________Джерело 4_________Джерело 5_________Джерело 6_________Джерело 7
У випадку, якщо з усіх джерел семпл видалять, прохання повідомити мені у ПРИВАТ


Подяка:

1. Пану urij546724 за запис звуку.


Реліз створено:

Особиста оцінка: 6 - мульт непоганий, але дитячий, тому й оцінка низька.

Реліз зберігати не буду, видалю щойно буде потрібне вільне місце.


Золотий реліз (завантажене не впливає на рейтинг)
 Трекер:    Зареєстрований   

Завантажити / скачати мультфільм українською



відео для новачків



 Зареєстрований:   2012-09-19 19:17
 Розмір:   20.21 GB 
 Оцінка мультфільму:   6.1/10 (Голосів: 8)
 Прохання залишати коментарі і не тікати з роздачі.
   
bot 
робот


З нами з: 30.09.07
Востаннє: 26.05.05
Повідомлень: 17366

2012-09-18 22:29  
Тему перенесено з Анонси релізів від Відео Гуртом до форуму Фільми в HD

Причина перенесення: початок роздачі
urij546724

ingwar 
Модератор літератури


З нами з: 08.03.08
Востаннє: 19.08.17
Повідомлень: 1232

2012-09-19 10:06  
А трошки менший розміром можна?
urij546724 
Відео Гуртом - фільмокрай
Відео Гуртом - фільмокрай


З нами з: 16.03.10
Востаннє: 19.08.17
Повідомлень: 5219

2012-09-19 11:01  
ingwar написано:
А трошки менший розміром можна?

Коли роздам цей реліз, почну роздавати ріп на 2 Гб.

urij546724 
Відео Гуртом - фільмокрай
Відео Гуртом - фільмокрай


З нами з: 16.03.10
Востаннє: 19.08.17
Повідомлень: 5219

2012-09-19 19:18  
Торент замінено.
Перейменовано файл з El delfin La historia de un sonador (2009) [ukr_1+1_spa__5.1] Remux [Hurtom] by urij546724 на El delfin La historia de un sonador (2009) [ukr_1+1_spa__5.1] Remux [Hurtom] by urij546724

Ваш часовий пояс: GMT + 2 Години

Нова тема   Відповісти