Пацанчики (Сезон 1) / Gutta Boys (Season 1) (2006) 720p-mini Nor | Sub Ukr

Нові коментарі

Нова тема   Відповісти
Останній раз роздавалося 1101 (2020-12-02)
Автор Повідомлення
1101 
Свій


З нами з: 09.07.12
Востаннє: 23.10.20
Повідомлень: 79

2012-09-17 19:37  
Пацанчики (Сезон 1) / Gutta Boys (Season 1) (2006) 720p-mini Nor | Sub Ukr

Пацанчики (Сезон 1) / Gutta Boys (Season 1) (2006) 720p-mini Nor | Sub Ukr


Жанр: підліткова драма
Країна: Норвегія



Кіностудія / кінокомпанія: Monster
Режисер: Арільд Андресен / Arild Andresen
Актори: Юнас Ульсен / Jonas Olsen, Бйорн Скалпе Бйорнлі / Bjorn Skalpe Bjornli, Сундре Вегхайм / Sondre Vegheim, Улаф Ендресен Хаукелі / Olav Endresen Haukeli, Хенрік Местад / Henrik Mestad, Каре Конраді / Kare Conradi та інші.

Сюжет:
У 12-річного Арне троє найкращих друзів: Бйорн Туре, Петтер та Айвінд. Бйорн – найбільш озлоблений хлопчик у класі, котрий страждає через розлучення своїх батьків. Він кидає виклик новому вчителю, і це тягне за собою низку драматичних подій, у які виявляються втягнутими четверо друзів. Хлопцям доведеться перевірити на міцність свою дружбу й зрозуміти, де проходить межа між добром і злом.


Тривалість: 1 серія ~ 25 хвилин
Якість:
Відео:
кодек:
розмір кадру: 1280x720
бітрейт: ~2495 кб/с

Аудіо:
мова: норвезька
переклад: оригінал
кодек: MP3
бітрейт: 160 кб/с

Субтитри:
мова: українська
тип: програмні (м'які)
формат: *.srt
Джерело субтитрів: аматорський переклад з англійської

Скріншоти









Media Info

Format : AVI
Format/Info : Audio Video Interleave
File size : 466 MiB
Duration : 24mn 25s
Overall bit rate : 2 668 Kbps

Video
ID : 0
Format : MPEG-4 Visual
Format profile : [email protected]
Format settings, BVOP : No
Format settings, QPel : No
Format settings, GMC : No warppoints
Format settings, Matrix : Default (H.263)
Codec ID :
Codec ID/Hint :
Duration : 24mn 25s
Bit rate : 2 495 Kbps
Width : 1 280 pixels
Height : 720 pixels
Display aspect ratio : 16:9
Frame rate : 30.000 fps
Color space : YUV
Chroma subsampling : 4:2:0
Bit depth : 8 bits
Scan type : Progressive
Compression mode : Lossy
Bits/(Pixel*Frame) : 0.090
Stream size : 436 MiB (94%)
Writing library : 1.2.1 (UTC 2008-12-04)

Audio
ID : 1
Format : MPEG Audio
Format version : Version 1
Format profile : Layer 3
Mode : Joint stereo
Mode extension : MS Stereo
Codec ID : 55
Codec ID/Hint : MP3
Duration : 24mn 25s
Bit rate mode : Constant
Bit rate : 160 Kbps
Channel(s) : 2 channels
Sampling rate : 44.1 KHz
Compression mode : Lossy
Stream size : 28.0 MiB (6%)
Alignment : Aligned on interleaves
Interleave, duration : 26 ms (0.78 video frame)
Interleave, preload duration : 26 ms
Writing library : LAME3.98.2
Особиста оцінка: 10 - без зайвих вагань рекомендую всім! Один з найкращих зразків подібного кіно: достатньо відвертий, жорсткий і нешмаркливий. Перший раз дивився, як-то кажуть, на одному диханні.


Бронзовий реліз (на рейтинг впливає 75% завантаженого)
 Трекер:    Зареєстрований   

Завантажити / скачати серіал українською



відео для новачків



 Зареєстрований:   2012-09-17 19:52
 Розмір:   3.25 GB 
 Оцінка серіалу:   10/10 (Голосів: 5)
   
bot 
робот


З нами з: 30.09.07
Востаннє: 26.05.05
Повідомлень: 26450

2012-09-17 20:48  
Тему перенесено з Телесеріали до форуму Серіали в HD


pyatachok

Einar 
Частий відвідувач


З нами з: 29.07.09
Востаннє: 03.12.20
Повідомлень: 28

2012-09-17 21:38  
норвежці кажуть на Оlav не Олаф.а Уляв.
1101 
Свій


З нами з: 09.07.12
Востаннє: 23.10.20
Повідомлень: 79

2012-09-18 15:58  
Einar написано:
норвежці кажуть на Оlav не Олаф.а Уляв.

Та тут на подив підібралися актори зі складними іменами: чи то Олсен чи то Улсен, Скалпе чи Шалпе, Ендресен і Сондре чи Еннресен і Соннре???

Einar 
Частий відвідувач


З нами з: 29.07.09
Востаннє: 03.12.20
Повідомлень: 28

2012-09-19 21:26  
ЗВИЧАЙНІ норвезькі імена і прізвища.але вони кажуть------Ульсен.Сундре

Додано через 5 хвилин 16 секунд:

Ну і Скальпе.Мєстад.дякую за фільм.

ratbol 
Модератор HD


З нами з: 03.02.09
Востаннє: 29.11.20
Повідомлень: 1072

2012-09-20 09:24  
1. Додати звіт медіаінфо однієї серії.
2. Зробити скріншоти в форматі png.
https://toloka.to/t20052
3. Написати перелік серій, як ось тут https://toloka.to/t29134
4. Вказати джерело субтитрів.

-VipeR- 
VIP


З нами з: 17.07.08
Востаннє: 02.12.20
Повідомлень: 296

2016-03-13 13:58  
Станьте хтось на роздачу!
1101 
Свій


З нами з: 09.07.12
Востаннє: 23.10.20
Повідомлень: 79

2016-03-14 23:13  
-VipeR- написано:
Станьте хтось на роздачу!

Став. У мене всі авторські роздачи сідуються. Але не щодня маю можливість роздавати.

-VipeR- 
VIP


З нами з: 17.07.08
Востаннє: 02.12.20
Повідомлень: 296

2016-03-15 11:12  
1101 написано:
Став. У мене всі авторські роздачи сідуються. Але не щодня маю можливість роздавати.

Дякую, скачав. Глянув першу серію, повинно бути цікаво. Дякую за переклад!

Ваш часовий пояс: GMT + 2 Години

Нова тема   Відповісти