Всесвіт (сезон 5) / The Universe (season 5) (2010) 720p Ukr/Eng | Sub Eng

Нові коментарі

Нова тема   Відповісти

Увійдіть, щоб проголосувати
Автор Повідомлення
Sando7 
Відео Гуртом - запис з ТБ
Відео Гуртом - запис з ТБ


З нами з: 04.05.09
Востаннє: 17.08.17
Повідомлень: 899

2012-08-24 12:03  
Всесвіт (сезон 5) / The Universe (season 5) (2010) 720p Ukr/Eng | Sub Eng

Всесвіт (сезон 5) / The Universe (season 5) (2010) 720p Ukr/Eng | Sub Eng


Жанр: науково-популярний
Країна: США



Режисер: Лаура Верклан, Тоні Лонг, Колін Кемпбелл, Дуглас Коен, Ендрю Нок...
Актори: Ерік Томпсон, Мічіо Каку, Ніл Тайсон, Девід Екройд, Тейн Х. Еллісон мол., Ральф Альфер, Джералд Бродін, Джеймс Кейсі...
Сюжет:
У цьому серіалі за допомогою сучасної комп'ютерної графіки і, ґрунтуючись на передових дослідженнях в галузі космосу, творці фільму змогли уявити те, що відбувається на інших планетах, в інших галактиках, уявити які форми життя могли б розвинутися в інших світах. Ви зможете побачити космічні лиха, паралельні всесвіти, неймовірну швидкість світла і дізнатися багато іншого про таємниці космосу.


Серія 01: Чудеса сонячної системи
Серія 02: Марс: нові докази
Серія 03: Магнітна буря
Серія 04: Подорож у часі
Серія 05: Дослідження космосу
Серія 06: Атака астероїда
Серія 07: Повне затемнення
Серія 08: Темне майбуття сонця

Тривалість: ~44 хв (кожна серія)
Якість:
Відео:
кодек:
розмір кадру: 1280 х 720
бітрейт: ~5000
Аудіо # 1:
мова: українська
переклад: двоголосий закадровий
кодек: 2.0
бітрейт: 192 кб/с
Аудіо # 2:
мова: англійська
переклад: оригінал
кодек: 2.0
бітрейт: 192 кб/с

Переклад і озвучення виконано:
1-3, 5, 6, 8 серії 4, 7 серії

Субтитри:
мова: англійська
тип: програмні (м'які)
формат: *.srt
Info
General
Unique ID : 228705540092084471818848098335880780443 (0xAC0F15B62D79767B83201CD016AE1A9B)
Complete name : D:\The Universe (season 5) (2010) [Ukr, Eng] 720p [Hurtom]\The Universe s05e07 - Total Eclipse [Ukr, Eng] 720p [Hurtom].
Format :
Format version : Version 1
File size : 1.66 GiB
Duration : 44mn 5s
Overall bit rate : 5 387 Kbps
Encoded date : UTC 2012-08-31 14:01:46
Writing application : mkvmerge v2.4.1 ('Use Me') built on Dec 5 2008 18:30:05
Writing library : libebml v0.7.7 + libmatroska v0.8.1

Video
ID : 1
Format : AVC
Format/Info : Advanced Video Codec
Format profile : [email protected]
Format settings, CABAC : Yes
Format settings, ReFrames : 3 frames
Codec ID : V_MPEG4/ISO/AVC
Duration : 44mn 5s
Bit rate : 5 000 Kbps
Width : 1 280 pixels
Height : 720 pixels
Display aspect ratio : 16:9
Frame rate : 23.976 fps
Color space : YUV
Chroma subsampling : 4:2:0
Bit depth : 8 bits
Scan type : Progressive
Bits/(Pixel*Frame) : 0.226
Stream size : 1.51 GiB (91%)
Writing library : core 68 r1181kMod 49bf767
Encoding settings : cabac=1 / ref=3 / deblock=1:0:0 / analyse=0x3:0x113 / me=hex / subme=7 / psy_rd=1.0:0.0 / mixed_ref=1 / me_range=16 / chroma_me=1 / trellis=1 / 8x8dct=1 / cqm=0 / deadzone=21,11 / chroma_qp_offset=-2 / threads=3 / nr=0 / decimate=1 / mbaff=0 / bframes=3 / b_pyramid=0 / b_adapt=1 / b_bias=0 / direct=3 / wpredb=1 / keyint=250 / keyint_min=25 / scenecut=40 / rc=2pass / bitrate=5000 / ratetol=1.0 / qcomp=0.60 / qpmin=10 / qpmax=51 / qpstep=4 / cplxblur=20.0 / qblur=0.5 / ip_ratio=1.40 / pb_ratio=1.30 / aq=1:1.00
Default : Yes
Forced : No

Audio #1
ID : 2
Format : AC-3
Format/Info : Audio Coding 3
Mode extension : CM (complete main)
Codec ID : A_AC3
Duration : 44mn 5s
Bit rate mode : Constant
Bit rate : 192 Kbps
Channel(s) : 2 channels
Channel positions : Front: L R
Sampling rate : 48.0 KHz
Bit depth : 16 bits
Compression mode : Lossy
Stream size : 60.6 MiB (4%)
Title : TVi
Language : Ukrainian
Default : Yes
Forced : No

Audio #2
ID : 3
Format : AC-3
Format/Info : Audio Coding 3
Mode extension : CM (complete main)
Codec ID : A_AC3
Duration : 44mn 5s
Bit rate mode : Constant
Bit rate : 192 Kbps
Channel(s) : 2 channels
Channel positions : Front: L R
Sampling rate : 48.0 KHz
Bit depth : 16 bits
Compression mode : Lossy
Stream size : 60.6 MiB (4%)
Language : English
Default : No
Forced : No

Text
ID : 4
Format : UTF-8
Codec ID : S_TEXT/UTF8
Codec ID/Info : UTF-8 Plain Text
Language : English
Default : Yes
Forced : No
Скріншоти:


Реліз:
Особиста оцінка: 10 - без зайвих вагань рекомендую всім!


Бронзовий реліз (на рейтинг впливає 75% завантаженого)
 Трекер:    Зареєстрований   

Завантажити / скачати фільм українською



відео для новачків



 Зареєстрований:   2012-08-31 18:39
 Розмір:   13.27 GB 
 Оцінка фільму:   10/10 (Голосів: 30)
   
kitua 
Новенький


З нами з: 02.03.12
Востаннє: 28.05.17
Повідомлень: 7

2012-08-24 23:11  
А де Торент?
link_s 
Свій


З нами з: 04.03.10
Востаннє: 14.08.17
Повідомлень: 138

2012-08-25 17:11  
це всього лиш анонс, тому й нема торенту...скоро з'явиться
коли - питайте у автора майбутньої роздачі

Sando7 
Відео Гуртом - запис з ТБ
Відео Гуртом - запис з ТБ


З нами з: 04.05.09
Востаннє: 17.08.17
Повідомлень: 899

2012-08-30 12:48  
реліз буде завтра ввечері
bot 
робот


З нами з: 30.09.07
Востаннє: 26.05.05
Повідомлень: 17362

2012-08-31 18:38  
taras1994 
Почесний оцифрувальник літератури


З нами з: 23.03.12
Востаннє: 30.11.16
Повідомлень: 5096

2012-09-03 12:21  
А це всі серії з цього сезону?
Sando7 
Відео Гуртом - запис з ТБ
Відео Гуртом - запис з ТБ


З нами з: 04.05.09
Востаннє: 17.08.17
Повідомлень: 899

2012-09-03 13:04  
taras1994 написано:
А це всі серії з цього сезону?

Так це всі, та невже ліньки мишкою клацнути на кнопу рейтингу imdb в описі та глянути самому ? чи мишка здохне ? http://www.imdb.com/title/tt1051155/episodes?season=5

PS... на цьому тижні почну робити 6-й сезон, вже маю 7 серій 6-го сезону озвучення телеканалу Мега

taras1994 
Почесний оцифрувальник літератури


З нами з: 23.03.12
Востаннє: 30.11.16
Повідомлень: 5096

2012-09-04 22:15  
sando7 написано:
Так це всі, та невже ліньки мишкою клацнути на кнопу рейтингу imdb в описі та глянути самому ? чи мишка здохне ?

Тепер буду знати.

Класний фільм про всесвіт, відкриває багато цікавих фактів.

Sando7 
Відео Гуртом - запис з ТБ
Відео Гуртом - запис з ТБ


З нами з: 04.05.09
Востаннє: 17.08.17
Повідомлень: 899

2012-10-24 20:52  
6-й сезон в мене трішки затримується, часу на нього дуже мало...тре пережити вибори і викладу як мінімум майже весь (без однієї лише серії,якщо її не покажуть) але шанс її зловити в трансляції каналу мега є величезний...так що чекайте

І до речі в кількості озвучених серій порівняно з рос озвучкою ми попереду Wide grin

Sando7 
Відео Гуртом - запис з ТБ
Відео Гуртом - запис з ТБ


З нами з: 04.05.09
Востаннє: 17.08.17
Повідомлень: 899

2012-11-26 02:40  
повний шостий сезон https://toloka.to/t41726
Ваш часовий пояс: GMT + 2 Години

Нова тема   Відповісти