Ховатися / Укриття / Take Shelter (2011) 720p Ukr/Eng | Sub Eng

Нові коментарі

Нова тема   Відповісти
Останній раз роздавалося Bugaj UA (2017-11-19)
Автор Повідомлення
11FrYkT 
Модератор відео


З нами з: 20.02.11
Востаннє: 23.08.19
Повідомлень: 6142

2012-08-08 12:10  
Ховатися / Укриття / Take Shelter (2011) 720p Ukr/Eng | Sub Eng

Ховатися / Укриття / Take Shelter (2011) 720p Ukr/Eng | Sub Eng

«Божевільний чи пророк?»



Жанр: драма, трилер
Країна: США



Кіностудія / кінокомпанія: Hydraulx, REI Capital, Grove Hill Productions
Режисер: Джефф Ніколс
Актори: Майкл Шенон, Джесіка Честейн, Това Стюарт, Ші Віґхем, Кеті Міксон, Наташа Рендал

Сюжет:
Кертіс живе в невеликому містечку штату Огайо з дружиною Самантою і шестирічною позбавленою слуху донькою Ханною. Незважаючи на всі труднощі, Кертіс і Саманта дуже кохають одне одного, і їх сім'я щаслива.
Одного дня Кертіса починають переслідувати марення про страшну загрозу, апокаліптичний шторм. Намагаючись опанувати себе, він спрямовує своє нав'язливе занепокоєння на спорудження та облаштування укриття від бурі...


Тривалість: 02:01:05
Якість: 720p
Відео:
кодек:
розмір кадру: 1280 х 544
бітрейт: 5300 кб/с

Аудіо # 1:
мова: українська
переклад: одноголосий закадровий від shevron
кодек: 2.0
бітрейт: 192 кб/с

Аудіо # 2:
мова: англійська
переклад: оригінал
кодек: 5.1
бітрейт: 1536 кб/с

Субтитри:
мова: англійська
тип: програмні (м'які)
формат: *.srt
Info
Код:
Take Shelter (2011) 720p.
   General
      UniqueID : 217239599932006745216980171761700876679 (0xA36ED3373C44023C98414EC06D0CB187)
      Complete name : Take Shelter (2011) 720p.
      Format :
      File size : 5.92 GiB
      Duration : 2h 1mn
      Overall bit rate : 6 999 Kbps
      Encoded date : UTC 2012-08-08 07:33:39
      Writing application : v4.9.1 ('Ich will') зібрано Jul 11 2011 23:53:15
      Writing library : libebml v1.2.1 + v1.1.1
   Video #1
      ID : 1
      Format : AVC
      Format/Info : Advanced Video Codec
      Format profile : [email protected]
      Format settings, CABAC : Yes
      Format settings, ReFrames : 12 frames
      Codec ID : V_MPEG4/ISO/AVC
      Duration : 2h 1mn
      Bit rate : 5 300 Kbps
      Width : 1 280 pixels
      Height : 544 pixels
      Display aspect ratio : 2.35:1
      Frame rate : 23.976 fps
      Color space : YUV
      Chroma subsampling : 4:2:0
      Bit depth : 8 bits
      Scan type : Progressive
      Bits/(Pixel*Frame) : 0.317
      Stream size : 4.36 GiB (74%)
      Writing library : core 120 r2164 da19765
      Encoding settings : cabac=1 / ref=12 / deblock=1:-3:-3 / analyse=0x3:0x113 / me=umh / subme=10 / psy=1 / psy_rd=1.00:0.00 / mixed_ref=1 / me_range=32 / chroma_me=1 / trellis=2 / 8x8dct=1 / cqm=0 / deadzone=21,11 / fast_pskip=0 / chroma_qp_offset=-2 / threads=6 / sliced_threads=0 / nr=0 / decimate=0 / interlaced=0 / bluray_compat=0 / constrained_intra=0 / bframes=9 / b_pyramid=2 / b_adapt=1 / b_bias=0 / direct=2 / weightb=0 / open_gop=0 / weightp=2 / keyint=240 / keyint_min=23 / scenecut=40 / intra_refresh=0 / rc=2pass / mbtree=0 / bitrate=5300 / ratetol=1.0 / qcomp=0.60 / qpmin=0 / qpmax=69 / qpstep=4 / cplxblur=20.0 / qblur=0.5 / ip_ratio=1.40 / pb_ratio=1.30 / aq=1:1.00
   Audio #2
      ID : 2
      Format : AC-3
      Format/Info : Audio Coding 3
      Mode extension : CM (complete main)
      Codec ID : A_AC3
      Duration : 2h 1mn
      Bit rate mode : Constant
      Bit rate : 192 Kbps
      Channel(s) : 2 channels
      Channel positions : Front: L R
      Sampling rate : 48.0 KHz
      Bit depth : 16 bits
      Compression mode : Lossy
      Stream size : 166 MiB (3%)
      Title : 2.0 @ 192 kb/s
      Language : Ukrainian
   Audio #3
      ID : 3
      Format :
      Format/Info : Digital Theater Systems
      Codec ID : A_DTS
      Duration : 2h 1mn
      Bit rate mode : Constant
      Bit rate : 1 510 Kbps
      Channel(s) : 6 channels
      Channel positions : Front: L C R, Side: L R, LFE
      Sampling rate : 48.0 KHz
      Bit depth : 24 bits
      Compression mode : Lossy
      Stream size : 1.28 GiB (22%)
      Title : 5.1 @ 1536 kb/s
      Language : English
   Text #4
      ID : 4
      Format : UTF-8
      Codec ID : S_TEXT/UTF8
      Codec ID/Info : UTF-8 Plain Text
      Language : English
Світлини






Джерело: &
Особиста оцінка: 0 - не дивився
Переклад: Skiff
Українізація постеру: Nofeeler
Семпл звуку


Авторський реліз (завантажувати можна без реєстрації)
 Трекер:    Зареєстрований   

Завантажити / скачати фільм українською



відео для новачків



 Зареєстрований:   2012-08-08 12:10
 Розмір:   5.92 GB 
 Оцінка фільму:   9.7/10 (Голосів: 9)
   
Інші релізи
   Укриття / Take Shelter (2011) 720p Ukr/Eng | sub Ukr/Eng Omikron  3 / 0   3.6 GB   2012-09-25 01:07 
   Укриття / Take Shelter (2011) Remux Ukr/Eng | sub Ukr/Eng Omikron  1 / 0   30.98 GB   2012-09-25 00:45 
   Укриття / Take Shelter (2011) Omikron  4 / 0   1.45 GB   2012-09-24 23:30 
   Укриття / Take Shelter (2011) 1080p Ukr/Eng | sub Ukr/Eng Omikron  2 / 0   19.39 GB   2012-09-24 22:29 
   Ховатися / Укриття / Take Shelter (2011) shevron  0 / 0   1.76 GB   2012-08-07 16:55 
   Ховатися / Укриття / Take Shelter (2011) Eng | sub Ukr Skiff  1 / 0   1.98 GB   2012-07-08 21:34 
zvbm 
Свій


З нами з: 20.05.12
Востаннє: 23.08.19
Повідомлень: 74

2012-09-28 18:00  
Відгукніться хтось за цей переклад!!!!!
ratbol 
Модератор HD


З нами з: 03.02.09
Востаннє: 25.08.19
Повідомлень: 1076

2012-09-28 18:08  
zvbm
А що професійна озвучка від Омікрону не влаштовує?

Sensetivity 
VIP


З нами з: 03.05.11
Востаннє: 03.01.13
Повідомлень: 2002

2012-09-28 18:37  
семпл б додав.

Додано через 8 хвилин 8 секунд:

Типічна одноголоска. Дивитися можна.

11FrYkT 
Модератор відео


З нами з: 20.02.11
Востаннє: 23.08.19
Повідомлень: 6142

2012-09-28 18:45  
Sensetivity , не добавляв бо семпл з цією озвучкою є
Sensetivity 
VIP


З нами з: 03.05.11
Востаннє: 03.01.13
Повідомлень: 2002

2012-09-28 18:49  
11FrYkT
То дай бодай лінк. Незручно ж шукати цей семпл по роздачах...

Ваш часовий пояс: GMT + 2 Години

Нова тема   Відповісти