Флінстоуни (сезони 1-6) / The Flintstones (Seasons 1-6) 27xDVD9+3xDVD5 /Eng/Fra/Spa/Ukr | Sub Eng/Fra/Spa

Нові коментарі

Нова тема   Відповісти
Автор Повідомлення
grytzzz 
Поважний учасник


З нами з: 02.01.10
Востаннє: 17.07.15
Повідомлень: 160

2012-08-02 09:52  
Флінстоуни (сезони 1-6) / The Flintstones (Seasons 1-6) 27xDVD9+3xDVD5 /Eng/Fra/Spa/Ukr | Sub Eng/Fra/Spa


Жанр: анімація, пригодницький, комедія, дитячий, сімейний
Країна: США


Кіностудія / кінокомпанія: Hanna Barbera.
Режисер: Джозеф Барбера, Вільям Ганна, Чарльз А. Ніколс
Сюжет:
Хочете стати свідком легенди кам'яного століття? Стежите за пригодами найпопулярнішого мультяшного печерного клану в цій доісторичній ретроспективі, що представляє найперші історії Фреда і Уїлми Флінстоун і їх кращих друзів - Барні і Бетти Рабл!
У цій класичній мульткомедии міста Бедрок особливе місце займає побутова техніка з "первісним" ухилом. Хобот мастодонта використовується як водопровідний кран і душ, птиця діє дзьобом як голка фонографа, а мусороїдний свинозаурус замінять сміттєпровід. Транспорт сімейства Флінтстоунов - новітній автомобіль з відкидним верхом, що наводиться в рух силоміць ніг, а улюблена домашня тварина - Діно, доброзичливий динозавр.

Додаткова інформація:
Цей реліз зроблено з оригінальних NTSC DVD.
Просто додано українську доріжку, яку можна вибрати в момент програвання.
Флінстоуни / The Flintstones / (Season 1) / 1960-1961 / 4xDVD9, 1хDVD5


Флінстоуни (сезони 1-6) / The Flintstones (Seasons 1-6) 27xDVD9+3xDVD5 /Eng/Fra/Spa/Ukr | Sub Eng/Fra/Spa


Тривалість: 28 x 00:25:00
Якість: DVD-9
Відео: кодек: MPEG-2 DVD розмір кадру: 720x480 бітрейт: ~5291 кб/с
Аудіо # 1: мова: англійська переклад: оригінал кодек: 1.0 бітрейт: 192 кб/с
Аудіо # 2: мова: французька переклад: професійний дубльований кодек: 1.0 бітрейт: 192 кб/с
Аудіо # 3: мова: іспанська переклад: професійний дубльований кодек: 1.0 бітрейт: 192 кб
Аудіо # 4: мова: українська переклад: двоголосий закадровий кодек: 1.0 бітрейт: 96 кб
Джерело озвучення:
Субтитри #1: мова: англійська тип: пререндерні
Субтитри #2: мова: французька тип: пререндерні
Субтитри #3: мова: іспанська тип: пререндерні
Info
Загальна інформація
DVD9\The Flintstones Hurtom\The Flintstones - Season 1\Disc 1\VIDEO_TS\VTS_01_1.VOB
Format : MPEG-PS
File size : 1 024 MiB
Duration : 27mn 3s
Overall bit rate mode : Variable
Overall bit rate : 5 291 Kbps

Video
ID : 224 (0xE0)
Format : MPEG Video
Format version : Version 2
Format profile : [email protected]
Format settings, BVOP : Yes
Format settings, Matrix : Custom
Duration : 27mn 3s
Bit rate mode : Variable
Bit rate : 4 514 Kbps
Maximum bit rate : 7 500 Kbps
Width : 720 pixels
Height : 480 pixels
Display aspect ratio : 4:3
Frame rate : 29.970 fps
Standard : NTSC
Color space : YUV
Chroma subsampling : 4:2:0
Bit depth : 8 bits
Compression mode : Lossy
Bits/(Pixel*Frame) : 0.436
Stream size : 874 MiB (85%)

Audio #1
ID : 189 (0xBD)-128 (0x80)
Format : AC-3
Format/Info : Audio Coding 3
Mode extension : CM (complete main)
Muxing mode : DVD-Video
Duration : 27mn 3s
Bit rate mode : Constant
Bit rate : 192 Kbps
Channel(s) : 1 channel
Channel positions : Front: C
Sampling rate : 48.0 KHz
Bit depth : 16 bits
Compression mode : Lossy
Delay relative to video : -84ms
Stream size : 37.2 MiB (4%)

Audio #2
ID : 189 (0xBD)-129 (0x81)
Format : AC-3
Format/Info : Audio Coding 3
Mode extension : CM (complete main)
Muxing mode : DVD-Video
Duration : 27mn 3s
Bit rate mode : Constant
Bit rate : 192 Kbps
Channel(s) : 1 channel
Channel positions : Front: C
Sampling rate : 48.0 KHz
Bit depth : 16 bits
Compression mode : Lossy
Delay relative to video : 152ms
Stream size : 37.1 MiB (4%)

Audio #3
ID : 189 (0xBD)-130 (0x82)
Format : AC-3
Format/Info : Audio Coding 3
Mode extension : CM (complete main)
Muxing mode : DVD-Video
Duration : 27mn 3s
Bit rate mode : Constant
Bit rate : 192 Kbps
Channel(s) : 1 channel
Channel positions : Front: C
Sampling rate : 48.0 KHz
Bit depth : 16 bits
Compression mode : Lossy
Delay relative to video : 152ms
Stream size : 37.1 MiB (4%)

Audio #4
ID : 189 (0xBD)-131 (0x83)
Format : AC-3
Format/Info : Audio Coding 3
Mode extension : CM (complete main)
Muxing mode : DVD-Video
Duration : 27mn 3s
Bit rate mode : Constant
Bit rate : 96.0 Kbps
Channel(s) : 1 channel
Channel positions : Front: C
Sampling rate : 48.0 KHz
Bit depth : 16 bits
Compression mode : Lossy
Delay relative to video : 152ms
Stream size : 18.6 MiB (2%)

Text #1
ID : 189 (0xBD)-32 (0x20)
Format : RLE
Format/Info : Run-length encoding
Muxing mode : DVD-Video
Duration : 26mn 49s
Delay relative to video : 2s 587ms

Text #2
ID : 189 (0xBD)-33 (0x21)
Format : RLE
Format/Info : Run-length encoding
Muxing mode : DVD-Video
Duration : 26mn 54s
Delay relative to video : 2s 587ms

Text #3
ID : 189 (0xBD)-34 (0x22)
Format : RLE
Format/Info : Run-length encoding
Muxing mode : DVD-Video
Duration : 26mn 54s
Delay relative to video : 2s 587ms

Text #4
ID : 224 (0xE0)-DVD-2
Format : EIA-608
Muxing mode : DVD-Video
Muxing mode, more info : Muxed in Video #1
Bit rate mode : Constant
Stream size : 0.00 Byte (0%)
Перелік серій

01 - Флінстоун - Льотчик (The Flintstone Flyer)
02 - Гарячі Губи Ханнігана (Hot Lips Hannigan)
03 - Басейн (The Split Personality)
04 - Допомога Не Потрібна (No Help Wanted)
05 - Роздвоєння Особистості (The Split Personality)
06 - Чудовисько З Дьохтевої Ями (The Monster From The Tar Pits)
07 - Няньки (The Babysitters)
08 - На Перегонах (At The Races)
09 - Обручка (The Engagement Ring)
10 - Холлірок, Я Вже Йду (Hollyrock, Here I Come)
11 - Чемпіон З Гольфу (The Golf Champion)
12 - Лотерейний Квиток (The Sweepstakes Ticket)
13 - Ресторан на колесах (The Drive-In)
14 - Злодій (The Prowler)
15 - Дівчачий Вечір (The Girls Night Out)
16 - Танцювальний Клас Артура Кварі (Arthur Quarry's Dance Class)
17 - Велике Пограбування Банку (The Big Bank Robbery)
18 - Мисливець на Сронказаврів (The Snorkasaurus Hunter)
19 - Гаряче Піаніно (The Hot Piano)
20 - Гіпнотизер (The Hypnotist)
21 - Любовні Листи Га Каменях (Love Letters On The Rocks)
22 - Магнат (The Tycoon)
23 - Астронафти (The Astra' Nuts)
24 - Довгий, Довгий Вікенд (The Long, Long Weekend)
25 - В Пасті (In The Dough)
26 - Хороший Шпигун (The Good Scout)
27 - Кімнати В Оренду (Rooms For Rent)
28 - Фред Флінстоун До Та Після (Fred Flintstone Before And After)
Скріншоти





Флінстоуни / The Flintstones / (Season 2) / 1961-1962 / 5xDVD9


Флінстоуни (сезони 1-6) / The Flintstones (Seasons 1-6) 27xDVD9+3xDVD5 /Eng/Fra/Spa/Ukr | Sub Eng/Fra/Spa


Тривалість: 32 x 00:25:00
Якість: DVD-9
Відео: кодек: MPEG-2 DVD розмір кадру: 720x480 бітрейт: ~5218 кб/с
Аудіо # 1: мова: англійська переклад: оригінал кодек: 1.0 бітрейт: 192 кб/с
Аудіо # 2: мова: французька переклад: професійний дубльований кодек: 1.0 бітрейт: 192 кб/с
Аудіо # 3: мова: іспанська переклад: професійний дубльований кодек: 1.0 бітрейт: 192 кб
Аудіо # 4: мова: українська переклад: двоголосий закадровий кодек: 1.0 бітрейт: 96 кб
Джерело озвучення:
Субтитри #1: мова: англійська тип: пререндерні
Субтитри #2: мова: французька тип: пререндерні
Субтитри #3: мова: іспанська тип: пререндерні
Info
Загальна інформація
Hurtom\The Flintstones - Season 2\Disc 2\VIDEO_TS\VTS_01_1.VOB
Format : MPEG-PS
File size : 1 024 MiB
Duration : 23mn 4s
Overall bit rate mode : Variable
Overall bit rate : 6 205 Kbps

Video
ID : 224 (0xE0)
Format : MPEG Video
Format version : Version 2
Format profile : [email protected]
Format settings, BVOP : Yes
Format settings, Matrix : Custom
Duration : 23mn 4s
Bit rate mode : Variable
Bit rate : 5 218 Kbps
Maximum bit rate : 7 500 Kbps
Width : 720 pixels
Height : 480 pixels
Display aspect ratio : 4:3
Frame rate : 29.970 fps
Standard : NTSC
Color space : YUV
Chroma subsampling : 4:2:0
Bit depth : 8 bits
Compression mode : Lossy
Bits/(Pixel*Frame) : 0.504
Stream size : 861 MiB (84%)

Audio #1
ID : 189 (0xBD)-128 (0x80)
Format : AC-3
Format/Info : Audio Coding 3
Mode extension : CM (complete main)
Muxing mode : DVD-Video
Duration : 23mn 4s
Bit rate mode : Constant
Bit rate : 192 Kbps
Channel(s) : 1 channel
Channel positions : Front: C
Sampling rate : 48.0 KHz
Bit depth : 16 bits
Compression mode : Lossy
Delay relative to video : -84ms
Stream size : 31.7 MiB (3%)

Audio #2
ID : 189 (0xBD)-129 (0x81)
Format : AC-3
Format/Info : Audio Coding 3
Mode extension : CM (complete main)
Muxing mode : DVD-Video
Duration : 23mn 4s
Bit rate mode : Constant
Bit rate : 192 Kbps
Channel(s) : 1 channel
Channel positions : Front: C
Sampling rate : 48.0 KHz
Bit depth : 16 bits
Compression mode : Lossy
Delay relative to video : -84ms
Stream size : 31.7 MiB (3%)

Audio #3
ID : 189 (0xBD)-130 (0x82)
Format : AC-3
Format/Info : Audio Coding 3
Mode extension : CM (complete main)
Muxing mode : DVD-Video
Duration : 23mn 4s
Bit rate mode : Constant
Bit rate : 192 Kbps
Channel(s) : 1 channel
Channel positions : Front: C
Sampling rate : 48.0 KHz
Bit depth : 16 bits
Compression mode : Lossy
Delay relative to video : -84ms
Stream size : 31.7 MiB (3%)

Audio #4
ID : 189 (0xBD)-131 (0x83)
Format : AC-3
Format/Info : Audio Coding 3
Mode extension : CM (complete main)
Muxing mode : DVD-Video
Duration : 31s 72ms
Bit rate mode : Constant
Bit rate : 192 Kbps
Channel(s) : 2 channels
Channel positions : Front: L R
Sampling rate : 48.0 KHz
Bit depth : 16 bits
Compression mode : Lossy
Stream size : 728 KiB (0%)

Audio #5
ID : 189 (0xBD)-132 (0x84)
Format : AC-3
Format/Info : Audio Coding 3
Mode extension : CM (complete main)
Muxing mode : DVD-Video
Duration : 31s 40ms
Bit rate mode : Constant
Bit rate : 96.0 Kbps
Channel(s) : 1 channel
Channel positions : Front: C
Sampling rate : 48.0 KHz
Bit depth : 16 bits
Compression mode : Lossy
Stream size : 364 KiB (0%)

Text #1
ID : 224 (0xE0)-DVD-2
Format : EIA-608
Muxing mode : DVD-Video
Muxing mode, more info : Muxed in Video #1
Bit rate mode : Constant
Stream size : 0.00 Byte (0%)

Text #2
ID : 189 (0xBD)-32 (0x20)
Format : RLE
Format/Info : Run-length encoding
Muxing mode : DVD-Video

Text #3
ID : 189 (0xBD)-33 (0x21)
Format : RLE
Format/Info : Run-length encoding
Muxing mode : DVD-Video

Text #4
ID : 189 (0xBD)-34 (0x22)
Format : RLE
Format/Info : Run-length encoding
Muxing mode : DVD-Video
Перелік серій

01 - Композитори Хітів (The Hit Song Writers)
02 - Флінстоун На Ранчо (Droop Along Flintstone)
03 - Пропущений Автобус (The Missing Bus)
04 - Елвін Брідрок Презентує (Alvin Brickrock Presents)
05 - Фред Сватається Знову (Fred Flintstone Woos Again)
06 - Історія Кам’яного Кар'єру (The Rock Quarry Story)
07 - М'які Відчуття (The Soft Touchables)
08 - Флінстоун З Прінстону (Flintstone Of Prinstone)
09 - Маленька Біла Брехня (The Little White Lie)
10 - Кар'єристи (Social Climbers)
11 - Конкурс краси (The Beauty Contest)
12 - Бал-Маскарад (The Masquerade Ball)
13 - Пікнік (The Picnic)
14 - Гість В Будинку (The House Guest)
15 - Історія Рентгену (The X-Ray Story)
16 - Гравець (The Gambler)
17 - Майже Зійшовша Зірка (A Star Is Almost Born)
18 - Конферансьє (The Entertainer)
19 - Зникаючі гроші Вільми (Wilma's Vanishing Money)
20 - Ворожнеча Та Метушня (Fuedin' And Fussin')
21 - Фальшивомонетник (Impractical Joker)
22 - Операція Барні (Operation Barney)
23 - Щасливе Господарство (The Happy Household)
24 - Фред Вибиває Страйк (Fred Strikes Out)
25 - Це Твій Рятівник (This Is Your Lifesaver)
26 - Проблема З Тещею (Trouble-In-Law)
27 - Насувається Поштар (The Mailman Cometh)
28 - Історія Рок Вегасу (The Rock Vegas Story)
29 - Ми Розділені Парусом (Divided We Sail)
30 - Клептоманська Витівка (Kleptomaniac Caper)
31 - Латинський Коханець (Latin Lover)
32 - Візьми Мене На Бейсбол (Take Me Out To The Ball Game)
Скріншоти






Флінстоуни / The Flintstones / (Season 3) / 1962-1963 / 5xDVD9


Флінстоуни (сезони 1-6) / The Flintstones (Seasons 1-6) 27xDVD9+3xDVD5 /Eng/Fra/Spa/Ukr | Sub Eng/Fra/Spa


Тривалість: 28 x 00:25:00
Якість: DVD-9
Відео: кодек: MPEG-2 DVD розмір кадру: 720x480 бітрейт: ~5574 кб/с
Аудіо # 1: мова: англійська переклад: оригінал кодек: 1.0 бітрейт: 192 кб/с
Аудіо # 2: мова: французька переклад: професійний дубльований кодек: 1.0 бітрейт: 192 кб/с
Аудіо # 3: мова: іспанська переклад: професійний дубльований кодек: 1.0 бітрейт: 192 кб
Аудіо # 4: мова: українська переклад: двоголосий закадровий кодек: 1.0 бітрейт: 96 кб
Джерело озвучення:
Субтитри #1: мова: англійська тип: пререндерні
Субтитри #2: мова: французька тип: пререндерні
Субтитри #3: мова: іспанська тип: пререндерні
Info
Загальна інформація
Hurtom\The Flintstones - Season 3\Disc 2\VIDEO_TS\VTS_01_3.VOB
Format : MPEG-PS
File size : 1 024 MiB
Duration : 22mn 28s
Overall bit rate mode : Variable
Overall bit rate : 6 372 Kbps

Video
ID : 224 (0xE0)
Format : MPEG Video
Format version : Version 2
Format profile : [email protected]
Format settings, BVOP : Yes
Format settings, Matrix : Custom
Format settings, GOP : M=3, N=12
Duration : 22mn 27s
Bit rate mode : Variable
Bit rate : 5 574 Kbps
Maximum bit rate : 7 500 Kbps
Width : 720 pixels
Height : 480 pixels
Display aspect ratio : 4:3
Frame rate : 23.976 fps
Standard : NTSC
Color space : YUV
Chroma subsampling : 4:2:0
Bit depth : 8 bits
Scan type : Progressive
Scan order : 2:3 Pulldown
Compression mode : Lossy
Bits/(Pixel*Frame) : 0.673
Stream size : 896 MiB (87%)

Audio #1
ID : 189 (0xBD)-128 (0x80)
Format : AC-3
Format/Info : Audio Coding 3
Mode extension : CM (complete main)
Muxing mode : DVD-Video
Duration : 22mn 28s
Bit rate mode : Constant
Bit rate : 192 Kbps
Channel(s) : 1 channel
Channel positions : Front: C
Sampling rate : 48.0 KHz
Bit depth : 16 bits
Compression mode : Lossy
Delay relative to video : -429ms
Stream size : 30.9 MiB (3%)

Audio #2
ID : 189 (0xBD)-129 (0x81)
Format : AC-3
Format/Info : Audio Coding 3
Mode extension : CM (complete main)
Muxing mode : DVD-Video
Duration : 22mn 28s
Bit rate mode : Constant
Bit rate : 192 Kbps
Channel(s) : 1 channel
Channel positions : Front: C
Sampling rate : 48.0 KHz
Bit depth : 16 bits
Compression mode : Lossy
Delay relative to video : -429ms
Stream size : 30.9 MiB (3%)

Audio #3
ID : 189 (0xBD)-130 (0x82)
Format : AC-3
Format/Info : Audio Coding 3
Mode extension : CM (complete main)
Muxing mode : DVD-Video
Duration : 22mn 28s
Bit rate mode : Constant
Bit rate : 192 Kbps
Channel(s) : 1 channel
Channel positions : Front: C
Sampling rate : 48.0 KHz
Bit depth : 16 bits
Compression mode : Lossy
Delay relative to video : -429ms
Stream size : 30.9 MiB (3%)

Audio #4
ID : 189 (0xBD)-131 (0x83)
Format : AC-3
Format/Info : Audio Coding 3
Mode extension : CM (complete main)
Muxing mode : DVD-Video
Duration : 22mn 28s
Bit rate mode : Constant
Bit rate : 96.0 Kbps
Channel(s) : 1 channel
Channel positions : Front: C
Sampling rate : 48.0 KHz
Bit depth : 16 bits
Compression mode : Lossy
Delay relative to video : -269ms
Stream size : 15.4 MiB (2%)

Text #1
ID : 189 (0xBD)-32 (0x20)
Format : RLE
Format/Info : Run-length encoding
Muxing mode : DVD-Video
Duration : 22mn 22s
Delay relative to video : -67ms

Text #2
ID : 189 (0xBD)-33 (0x21)
Format : RLE
Format/Info : Run-length encoding
Muxing mode : DVD-Video
Duration : 22mn 22s
Delay relative to video : -67ms

Text #3
ID : 189 (0xBD)-34 (0x22)
Format : RLE
Format/Info : Run-length encoding
Muxing mode : DVD-Video
Duration : 22mn 22s
Delay relative to video : -67ms

Text #4
ID : 224 (0xE0)-DVD-2
Format : EIA-608
Muxing mode : DVD-Video
Muxing mode, more info : Muxed in Video #1
Bit rate mode : Constant
Stream size : 0.00 Byte (0%)
Перелік серій

01 - Dino Goes Hollyrock
02 - Fred's New Boss
03 - Invisible Barney
04 - Bowling Ballet
05 - The Twitch
06 - Here's Snow In Your Eyes
07 - The Buffalo Convention
08 - The Little Stranger
09 - Baby Barney
10 - Hawaian Escapade
11 - Ladies' Day
12 - Nuttin' But The Tooth
13 - High School Fred
14 - Dial S For Suspicion
15 - Flash Gun Freddie
16 - The Kissing Burglar
17 - Wilma, The Maid
18 - The Hero
19 - The Surprise
20 - Mother-In-Law's Visit
21 - Foxy Grandma
22 - Fred's New Job
23 - The Blessed Event
24 - Carry On, Nurse Fred
25 - Ventriloquist Barney
26 - The Big Move
27 - Swedish Visitors
28 - The Birthday Party
Скріншоти







Флінстоуни / The Flintstones / (Season 4) / 1963-1964 / 5xDVD9


Флінстоуни (сезони 1-6) / The Flintstones (Seasons 1-6) 27xDVD9+3xDVD5 /Eng/Fra/Spa/Ukr | Sub Eng/Fra/Spa


Тривалість: 26 x 00:25:00
Якість: DVD-9
Відео: кодек: MPEG-2 DVD розмір кадру: 720x480 бітрейт: ~5564 кб/с
Аудіо # 1: мова: англійська переклад: оригінал кодек: 1.0 бітрейт: 192 кб/с
Аудіо # 2: мова: українська переклад: двоголосий закадровий кодек: 1.0 бітрейт: 96 кб
Джерело озвучення:
Субтитри #1: мова: англійська тип: пререндерні
Субтитри #2: мова: французька тип: пререндерні
Субтитри #3: мова: іспанська тип: пререндерні
Info
Загальна інформація
Hurtom\The Flintstones - Season 4\Disc 2\VIDEO_TS\VTS_01_4.VOB
Format : MPEG-PS
File size : 1 024 MiB
Duration : 23mn 12s
Overall bit rate mode : Variable
Overall bit rate : 6 167 Kbps

Video
ID : 224 (0xE0)
Format : MPEG Video
Format version : Version 2
Format profile : [email protected]
Format settings, BVOP : Yes
Format settings, Matrix : Custom
Duration : 23mn 12s
Bit rate mode : Variable
Bit rate : 5 564 Kbps
Maximum bit rate : 9 800 Kbps
Width : 720 pixels
Height : 480 pixels
Display aspect ratio : 4:3
Frame rate : 23.976 fps
Standard : NTSC
Color space : YUV
Chroma subsampling : 4:2:0
Bit depth : 8 bits
Scan type : Progressive
Scan order : 2:3 Pulldown
Compression mode : Lossy
Bits/(Pixel*Frame) : 0.672
Stream size : 924 MiB (90%)

Audio #1
ID : 189 (0xBD)-128 (0x80)
Format : AC-3
Format/Info : Audio Coding 3
Mode extension : CM (complete main)
Muxing mode : DVD-Video
Duration : 23mn 12s
Bit rate mode : Constant
Bit rate : 192 Kbps
Channel(s) : 1 channel
Channel positions : Front: C
Sampling rate : 48.0 KHz
Bit depth : 16 bits
Compression mode : Lossy
Delay relative to video : -637ms
Stream size : 31.9 MiB (3%)

Audio #2
ID : 189 (0xBD)-129 (0x81)
Format : AC-3
Format/Info : Audio Coding 3
Mode extension : CM (complete main)
Muxing mode : DVD-Video
Duration : 23mn 12s
Bit rate mode : Constant
Bit rate : 192 Kbps
Channel(s) : 1 channel
Channel positions : Front: C
Sampling rate : 48.0 KHz
Bit depth : 16 bits
Compression mode : Lossy
Delay relative to video : -637ms
Stream size : 31.9 MiB (3%)

Audio #3
ID : 189 (0xBD)-130 (0x82)
Format : AC-3
Format/Info : Audio Coding 3
Mode extension : CM (complete main)
Muxing mode : DVD-Video
Duration : 23mn 12s
Bit rate mode : Constant
Bit rate : 96.0 Kbps
Channel(s) : 1 channel
Channel positions : Front: C
Sampling rate : 48.0 KHz
Bit depth : 16 bits
Compression mode : Lossy
Delay relative to video : -573ms
Stream size : 15.9 MiB (2%)

Text #1
ID : 189 (0xBD)-32 (0x20)
Format : RLE
Format/Info : Run-length encoding
Muxing mode : DVD-Video
Duration : 23mn 7s
Delay relative to video : 3s 587ms

Text #2
ID : 189 (0xBD)-33 (0x21)
Format : RLE
Format/Info : Run-length encoding
Muxing mode : DVD-Video
Duration : 23mn 7s
Delay relative to video : 3s 587ms

Text #3
ID : 189 (0xBD)-34 (0x22)
Format : RLE
Format/Info : Run-length encoding
Muxing mode : DVD-Video
Duration : 23mn 7s
Delay relative to video : 3s 587ms

Text #4
ID : 224 (0xE0)-DVD-2
Format : EIA-608
Muxing mode : DVD-Video
Muxing mode, more info : Muxed in Video #1
Bit rate mode : Constant
Stream size : 0.00 Byte (0%)
Перелік серій

01 - Ann-Margrock Presents
02 - Gloom Groom
03 - Little Bamm-Bamm
04 - Dino Disappears
05 - Fred's Monkeyshines
06 - The Flintstone Canaries
07 - Glue for Two
08 - Big League Freddie
09 - Old Lady Betty
10 - Sleep On, Sweet Fred
11 - Kleptomaniac Pebbles
12 - Daddy's Little Beauty
13 - Daddies Anonymous
14 - Peek-a-Boo Camera
15 - Once Upon a Coward
16 - Ten Little Flintstones
17 - Fred el Terrifico
18 - Flintstone Hillbillies
19 - Flintstone and the Lion
20 - Cave Scout Jamboree
21 - Room for Two
22 - Ladies Night at the Lodge
23 - Reel Trouble
24 - Son of Rockzilla
25 - Bachelor Daze
26 - Operation Switchover
Скріншоти








Флінстоуни / The Flintstones / (Season 5) / 1964-1965 / 4xDVD9, 1xDVD5


Флінстоуни (сезони 1-6) / The Flintstones (Seasons 1-6) 27xDVD9+3xDVD5 /Eng/Fra/Spa/Ukr | Sub Eng/Fra/Spa


Тривалість: 26 x 00:25:00
Якість: DVD-9
Відео: кодек: MPEG-2 DVD розмір кадру: 720x480 бітрейт: ~5634 кб/с
Аудіо # 1: мова: англійська переклад: оригінал кодек: 1.0 бітрейт: 192 кб/с
Аудіо # 2: мова: французька переклад: професійний дубльований кодек: 1.0 бітрейт: 192 кб/с
Аудіо # 3: мова: українська переклад: двоголосий закадровий кодек: 1.0 бітрейт: 96 кб
Джерело озвучення:
Субтитри #1: мова: англійська тип: пререндерні
Субтитри #2: мова: французька тип: пререндерні
Субтитри #3: мова: іспанська тип: пререндерні
Info
Загальна інформація
Hurtom\The Flintstones - Season 5\Disc 3\VIDEO_TS\VTS_01_3.VOB
Format : MPEG-PS
File size : 1 024 MiB
Duration : 22mn 57s
Overall bit rate mode : Variable
Overall bit rate : 6 238 Kbps

Video
ID : 224 (0xE0)
Format : MPEG Video
Format version : Version 2
Format profile : [email protected]
Format settings, BVOP : Yes
Format settings, Matrix : Custom
Duration : 22mn 56s
Bit rate mode : Variable
Bit rate : 5 634 Kbps
Maximum bit rate : 9 800 Kbps
Width : 720 pixels
Height : 480 pixels
Display aspect ratio : 4:3
Frame rate : 23.976 fps
Standard : NTSC
Color space : YUV
Chroma subsampling : 4:2:0
Bit depth : 8 bits
Scan type : Progressive
Scan order : 2:3 Pulldown
Compression mode : Lossy
Bits/(Pixel*Frame) : 0.680
Stream size : 924 MiB (90%)

Audio #1
ID : 189 (0xBD)-128 (0x80)
Format : AC-3
Format/Info : Audio Coding 3
Mode extension : CM (complete main)
Muxing mode : DVD-Video
Duration : 22mn 56s
Bit rate mode : Constant
Bit rate : 192 Kbps
Channel(s) : 1 channel
Channel positions : Front: C
Sampling rate : 48.0 KHz
Bit depth : 16 bits
Compression mode : Lossy
Delay relative to video : -518ms
Stream size : 31.5 MiB (3%)

Audio #2
ID : 189 (0xBD)-129 (0x81)
Format : AC-3
Format/Info : Audio Coding 3
Mode extension : CM (complete main)
Muxing mode : DVD-Video
Duration : 22mn 56s
Bit rate mode : Constant
Bit rate : 192 Kbps
Channel(s) : 1 channel
Channel positions : Front: C
Sampling rate : 48.0 KHz
Bit depth : 16 bits
Compression mode : Lossy
Delay relative to video : -518ms
Stream size : 31.5 MiB (3%)

Audio #3
ID : 189 (0xBD)-130 (0x82)
Format : AC-3
Format/Info : Audio Coding 3
Mode extension : CM (complete main)
Muxing mode : DVD-Video
Duration : 22mn 57s
Bit rate mode : Constant
Bit rate : 96.0 Kbps
Channel(s) : 1 channel
Channel positions : Front: C
Sampling rate : 48.0 KHz
Bit depth : 16 bits
Compression mode : Lossy
Delay relative to video : -454ms
Stream size : 15.8 MiB (2%)

Text #1
ID : 189 (0xBD)-32 (0x20)
Format : RLE
Format/Info : Run-length encoding
Muxing mode : DVD-Video
Duration : 22mn 46s
Delay relative to video : 2s 919ms

Text #2
ID : 189 (0xBD)-33 (0x21)
Format : RLE
Format/Info : Run-length encoding
Muxing mode : DVD-Video
Duration : 22mn 46s
Delay relative to video : 2s 919ms

Text #3
ID : 189 (0xBD)-34 (0x22)
Format : RLE
Format/Info : Run-length encoding
Muxing mode : DVD-Video
Duration : 22mn 46s
Delay relative to video : 2s 919ms

Text #4
ID : 224 (0xE0)-DVD-2
Format : EIA-608
Muxing mode : DVD-Video
Muxing mode, more info : Muxed in Video #1
Bit rate mode : Constant
Stream size : 0.00 Byte (0%)
Перелік серій

01 - Hop Happy
02 - Monster Fred
03 - Itty Biddy Freddy
04 - Pebbles' Birthday Party
05 - Bedrock Rodeo Round-Up
06 - Cinderella Stone
07 - A Haunted House is Not a Home
08 - Dr. Sinister
09 - The Gruesomes
10 - The Most Beautiful Baby in Bedrock
11 - Dino and Juliet
12 - King for a Night
13 - Indianrockolis 500
14 - Adobe Dick
15 - Christmas Flintstone
16 - Fred's Flying Lesson
17 - Fred's Second Car
18 - Time Machine
19 - The Hatrocks and the Gruesomes
20 - Moonlight and Maintenance
21 - Sheriff for a Day
22 - Deep in the Heart of Texarock
23 - The Rolls Rock Caper
24 - Superstone
25 - Fred Meets Hercurock
26 - Surfin' Fred
Скріншоти







Флінстоуни / The Flintstones / (Season 6) / 1965-1966 / 4xDVD9, 1xDVD5


Флінстоуни (сезони 1-6) / The Flintstones (Seasons 1-6) 27xDVD9+3xDVD5 /Eng/Fra/Spa/Ukr | Sub Eng/Fra/Spa


Тривалість: 26 x 00:25:00
Якість: DVD-9
Відео: кодек: MPEG-2 DVD розмір кадру: 720x480 бітрейт: ~5813 кб/с
Аудіо # 1: мова: англійська переклад: оригінал кодек: 1.0 бітрейт: 192 кб/с
Аудіо # 2: мова: французька переклад: професійний дубльований кодек: 1.0 бітрейт: 192 кб/с
Аудіо # 3: мова: іспанська переклад: професійний дубльований кодек: 1.0 бітрейт: 192 кб
Аудіо # 4: мова: українська переклад: двоголосий закадровий кодек: 1.0 бітрейт: 96 кб
Джерело озвучення:
Субтитри : немає і не було
Info
Загальна інформація
Hurtom\The Flintstones - Season 6\Disc 3\VIDEO_TS\VTS_01_5.VOB
Format : MPEG-PS
File size : 1 024 MiB
Duration : 21mn 38s
Overall bit rate mode : Variable
Overall bit rate : 6 617 Kbps

Video
ID : 224 (0xE0)
Format : MPEG Video
Format version : Version 2
Format profile : [email protected]
Format settings, BVOP : Yes
Format settings, Matrix : Custom
Duration : 21mn 37s
Bit rate mode : Variable
Bit rate : 5 813 Kbps
Maximum bit rate : 9 800 Kbps
Width : 720 pixels
Height : 480 pixels
Display aspect ratio : 4:3
Frame rate : 23.976 fps
Standard : NTSC
Color space : YUV
Chroma subsampling : 4:2:0
Bit depth : 8 bits
Scan type : Progressive
Scan order : 2:3 Pulldown
Compression mode : Lossy
Bits/(Pixel*Frame) : 0.702
Stream size : 899 MiB (88%)

Audio #1
ID : 189 (0xBD)-128 (0x80)
Format : AC-3
Format/Info : Audio Coding 3
Mode extension : CM (complete main)
Muxing mode : DVD-Video
Duration : 21mn 38s
Bit rate mode : Constant
Bit rate : 192 Kbps
Channel(s) : 1 channel
Channel positions : Front: C
Sampling rate : 48.0 KHz
Bit depth : 16 bits
Compression mode : Lossy
Delay relative to video : -613ms
Stream size : 29.7 MiB (3%)

Audio #2
ID : 189 (0xBD)-129 (0x81)
Format : AC-3
Format/Info : Audio Coding 3
Mode extension : CM (complete main)
Muxing mode : DVD-Video
Duration : 21mn 38s
Bit rate mode : Constant
Bit rate : 192 Kbps
Channel(s) : 1 channel
Channel positions : Front: C
Sampling rate : 48.0 KHz
Bit depth : 16 bits
Compression mode : Lossy
Delay relative to video : -613ms
Stream size : 29.7 MiB (3%)

Audio #3
ID : 189 (0xBD)-130 (0x82)
Format : AC-3
Format/Info : Audio Coding 3
Mode extension : CM (complete main)
Muxing mode : DVD-Video
Duration : 21mn 38s
Bit rate mode : Constant
Bit rate : 192 Kbps
Channel(s) : 1 channel
Channel positions : Front: C
Sampling rate : 48.0 KHz
Bit depth : 16 bits
Compression mode : Lossy
Delay relative to video : -613ms
Stream size : 29.7 MiB (3%)

Audio #4
ID : 189 (0xBD)-131 (0x83)
Format : AC-3
Format/Info : Audio Coding 3
Mode extension : CM (complete main)
Muxing mode : DVD-Video
Duration : 21mn 38s
Bit rate mode : Constant
Bit rate : 96.0 Kbps
Channel(s) : 1 channel
Channel positions : Front: C
Sampling rate : 48.0 KHz
Bit depth : 16 bits
Compression mode : Lossy
Delay relative to video : -453ms
Stream size : 14.9 MiB (1%)

Text
ID : 224 (0xE0)-DVD-2
Format : EIA-608
Muxing mode : DVD-Video
Muxing mode, more info : Muxed in Video #1
Bit rate mode : Constant
Stream size : 0.00 Byte (0%)
Перелік серій

01 - No Biz Like Show Biz
02 - The House that Fred Built
03 - The Return of Stony Curtis
04 - Disorder in the Court
05 - Circus Business
06 - Samantha
07 - The Great Gazoo - українська покищо відсутня
08 - Rip Van Flintstone
09 - The Gravelberry Pie King
10 - The Stonefinger Caper
11 - The Masquerade Party
12 - Shinrock-A-Go-Go
13 - Royal Rubble
14 - Seeing Doubles
15 - How to Pick a Fight With Your Wife Without Really Trying
16 - Fred Goes Ape
17 - The Long, Long, Long Weekend
18 - Two Men on a Dinosaur
19 - The Treasure of Sierra Madrock
20 - Curtain Call at Bedrock
21 - Boss for a Day
22 - Fred's Island
23 - Jealousy
24 - Dripper
25 - My Fair Freddy
26 - The Story of Rocky's Raiders
Скріншоти







Джерело:
Особиста оцінка: 10 - рекомендую


Золотий реліз (завантажене не впливає на рейтинг)
 Трекер:    Зареєстрований   

Завантажити / скачати мультфільм українською



відео для новачків



 Зареєстрований:   2012-08-02 10:32
 Розмір:   184.16 GB 
 Оцінка мультфільму:   10/10 (Голосів: 12)
   
Ігор Вінський 
VIP


З нами з: 17.03.11
Востаннє: 11.12.17
Повідомлень: 370

2012-08-02 12:05  
Суперовий реліз, для любителів неперетиснутого, оригінального відео. Тисяча подяк.
grytzzz 
Поважний учасник


З нами з: 02.01.10
Востаннє: 17.07.15
Повідомлень: 160

2012-08-02 13:39  
Планую, але не дуже скоро, ще Джорджа з джунглів, та злюків бобрів у ДВД9. Поки що і так багато часу іде на інші релізи.
lpershyi 
Попереджень: 2
Попереджень: 2 


З нами з: 04.01.11
Востаннє: 03.08.17
Повідомлень: 2741

2012-08-02 13:44  
Золото буде?
grytzzz 
Поважний учасник


З нами з: 02.01.10
Востаннє: 17.07.15
Повідомлень: 160

2012-08-02 14:23  
Ну якщо хто дасть.)))
DiGen 
Модератор HD та координатор Команди HD
Модератор HD та координатор Команди HD


З нами з: 12.11.09
Востаннє: 24.06.13
Повідомлень: 1449

2012-08-02 22:15  
grytzzz
Дав Happy

Додано через 2 хвилини 6 секунд:

От тільки постає питання - диски перероблені особисто?
Якщо так, то так, то чому Українська доріжка не є першою?

grytzzz 
Поважний учасник


З нами з: 02.01.10
Востаннє: 17.07.15
Повідомлень: 160

2012-08-03 00:59  
Дякую.
abodnya 
Відео Гуртом - фільмокрай
Відео Гуртом - фільмокрай


З нами з: 02.11.08
Востаннє: 08.12.17
Повідомлень: 5950

2012-08-03 01:54  
DiGen написано:
Якщо так, то так, то чому Українська доріжка не є першою?

Мабуть, щоб зберегти цілісність кнопок в двд меню вибору звуку

grytzzz 
Поважний учасник


З нами з: 02.01.10
Востаннє: 17.07.15
Повідомлень: 160

2012-08-03 13:50  
Збирав я, так, не хотів ламати кнопки в меню. Яка різниця якою по порядку є доріжка? Доріжка є і її можнв включити, правда у режимі програвання. Просто не хотів порушувати структури диску.

Напевно ви мали на увазі, що треба було поміняти місцями укр доріжку на англ, а англ здвинути по порядку? ЧИ ще якісь дії повинні були бути? Я зробив по простому, це займає мало часу при такому обємі робіт.

DiGen 
Модератор HD та координатор Команди HD
Модератор HD та координатор Команди HD


З нами з: 12.11.09
Востаннє: 24.06.13
Повідомлень: 1449

2012-08-05 02:16  
grytzzz написано:
треба було поміняти місцями укр доріжку на англ

Так.

Ігор Вінський 
VIP


З нами з: 17.03.11
Востаннє: 11.12.17
Повідомлень: 370

2012-08-05 18:32  
З нетерпінням чекаю на реліз у ДВД "Злюки бобри". Також записую серії з трансляції К'юТБ. Якщо треба записи, звертайтеся.

https://toloka.to/t46169 Злюки-бобри 4 з 8 ДВД.

grytzzz 
Поважний учасник


З нами з: 02.01.10
Востаннє: 17.07.15
Повідомлень: 160

2012-08-05 19:51  
Поки що є 1 та 2й сезони з 5. Але ще не зроблені.
Ваш часовий пояс: GMT + 2 Години

Нова тема   Відповісти