Не бий копитом / Home On The Range (2004) 720p Ukr/Eng | Sub Eng

Нові коментарі

Нова тема   Відповісти
Автор Повідомлення
11FrYkT 
Модератор відео


З нами з: 20.02.11
Востаннє: 24.08.17
Повідомлень: 3825

2012-07-26 17:40  
Не бий копитом / Home On The Range (2004) 720p Ukr/Eng | Sub Eng

Не бий копитом / Home On The Range (2004) 720p Ukr/Eng | Sub Eng


Жанр: анімація, комедія, вестерн
Країна: США



Режисер: Вілл Фінн/Will Finn, Джон Сенфорд/John Sanford
Актори: Роузенн/Roseanne/, Джуді Денч/Judi Dench/, Дженіфер Тіллі/Jennifer Tilly/, Кьюба Гудінг-мол./Cuba Gooding Jr./, Ренді Куейд/Randy Quaid/, Девід Бернем/David Burnham/, Стів Бусемі/Steve Buscemi/

Сюжет:
Життя на фермі просте і вільне. Господарі і вихованці живуть душа в душу, співають пісні і веселяться. Але раптово цій ідилії приходить кінець. На зміну збанкрутілим власникам ферми приходить безжальний ділок, охочий продати землю і позбавитися тварин. Природно, це не влаштовує звиклих до солодкого життя чотириногих і пернатих мешканців. Починається приголомшливо смішна партизанська війна. Керівниками бунту виступають кінь Бак і три корови-непосиди, що вирішили піти на все, щоб врятувати ферму від розорення. Хто переможе в цій битві? Не знаємо як ви, а парнокопитні упевнені у власних силах.


Тривалість: 01:16:12
Якість: 720p
Відео:
кодек:
розмір кадру: 1280x720
бітрейт: 4500 кб/с

Аудіо # 1:
мова: українська
переклад: професійний дубльований
кодек: 1.0
бітрейт: 192 кб/с

Аудіо # 2:
мова: англійська
переклад: оригінал
кодек: 5.1
бітрейт: 640 кб/с

Аудіо # 3:
мова: англійська
переклад: оригінал
кодек: 2.0
бітрейт: 320 кб/с |Commentary by producer Alice Dewey and co-writers/co-directors Will Finn and John Sanford|

Субтитри(full):
мова: англійська
тип: програмні (м'які)
формат: *.srt

Субтитри(SDH):
мова: англійська
тип: програмні (м'які)
формат: *.srt

Субтитри(Commentary):
мова: англійська
тип: програмні (м'які)
формат: *.srt
Info
Код:
Home On The Range (2004) 720p.
   General
      UniqueID : 176798691569795151995935869116962754858 (0x8502307DFA6CF6BFA5513CC42DDED12A)
      Complete name : Home On The Range (2004) 720p.
      Format :
      File size : 3.01 GiB
      Duration : 1h 16mn
      Overall bit rate : 5 657 Kbps
      Encoded date : UTC 2012-07-26 14:21:18
      Writing application : mkvmerge v4.9.1 ('Ich will') зібрано Jul 11 2011 23:53:15
      Writing library : libebml v1.2.1 + libmatroska v1.1.1
   Video #1
      ID : 1
      Format : AVC
      Format/Info : Advanced Video Codec
      Format profile : [email protected]
      Format settings, CABAC : Yes
      Format settings, ReFrames : 9 frames
      Codec ID : V_MPEG4/ISO/AVC
      Duration : 1h 16mn
      Bit rate : 4 500 Kbps
      Width : 1 280 pixels
      Height : 720 pixels
      Display aspect ratio : 16:9
      Frame rate : 23.976 fps
      Color space : YUV
      Chroma subsampling : 4:2:0
      Bit depth : 8 bits
      Scan type : Progressive
      Bits/(Pixel*Frame) : 0.204
      Stream size : 2.34 GiB (78%)
      Writing library : core 125 r2200 999b753
      Encoding settings : cabac=1 / ref=9 / deblock=1:1:1 / analyse=0x3:0x113 / me=umh / subme=11 / psy=1 / psy_rd=0.40:0.00 / mixed_ref=1 / me_range=32 / chroma_me=1 / trellis=2 / 8x8dct=1 / cqm=0 / deadzone=21,11 / fast_pskip=1 / chroma_qp_offset=-2 / threads=9 / lookahead_threads=1 / sliced_threads=0 / nr=0 / decimate=1 / interlaced=0 / bluray_compat=0 / constrained_intra=0 / bframes=6 / b_pyramid=2 / b_adapt=2 / b_bias=0 / direct=1 / weightb=1 / open_gop=0 / weightp=2 / keyint=240 / keyint_min=23 / scenecut=40 / intra_refresh=0 / rc=2pass / mbtree=0 / bitrate=4500 / ratetol=1.0 / qcomp=0.60 / qpmin=0 / qpmax=69 / qpstep=4 / cplxblur=20.0 / qblur=0.5 / ip_ratio=1.40 / pb_ratio=1.30 / aq=1:0.60
      Language : English
      Color primaries : BT.709-5, BT.1361, IEC 61966-2-4, SMPTE RP177
      Transfer characteristics : BT.709-5, BT.1361
      Matrix coefficients : BT.709-5, BT.1361, IEC 61966-2-4 709, SMPTE RP177
   Audio #2
      ID : 2
      Format : AC-3
      Format/Info : Audio Coding 3
      Mode extension : CM (complete main)
      Codec ID : A_AC3
      Duration : 1h 16mn
      Bit rate mode : Constant
      Bit rate : 192 Kbps
      Channel(s) : 1 channel
      Channel positions : Front: C
      Sampling rate : 48.0 KHz
      Bit depth : 16 bits
      Compression mode : Lossy
      Stream size : 105 MiB (3%)
      Title : 2.0 @ 192 kbps Дубльований
      Language : Ukrainian
   Audio #3
      ID : 3
      Format : AC-3
      Format/Info : Audio Coding 3
      Mode extension : CM (complete main)
      Codec ID : A_AC3
      Duration : 1h 16mn
      Bit rate mode : Constant
      Bit rate : 640 Kbps
      Channel(s) : 6 channels
      Channel positions : Front: L C R, Side: L R, LFE
      Sampling rate : 48.0 KHz
      Bit depth : 16 bits
      Compression mode : Lossy
      Stream size : 349 MiB (11%)
      Title : 5.1 @ 640 kbps
      Language : English
   Audio #4
      ID : 4
      Format : AC-3
      Format/Info : Audio Coding 3
      Mode extension : CM (complete main)
      Codec ID : A_AC3
      Duration : 1h 16mn
      Bit rate mode : Constant
      Bit rate : 320 Kbps
      Channel(s) : 2 channels
      Channel positions : Front: L R
      Sampling rate : 48.0 KHz
      Bit depth : 16 bits
      Compression mode : Lossy
      Stream size : 174 MiB (6%)
      Title : 2.0 @ 320 kbps |Commentary by producer Alice Dewey and co-writers/co-directors Will Finn and John Sanford|
      Language : English
   Text #5
      ID : 5
      Format : UTF-8
      Codec ID : S_TEXT/UTF8
      Codec ID/Info : UTF-8 Plain Text
      Title : full
      Language : English
   Text #6
      ID : 6
      Format : UTF-8
      Codec ID : S_TEXT/UTF8
      Codec ID/Info : UTF-8 Plain Text
      Title : sdh
      Language : English
   Text #7
      ID : 7
      Format : UTF-8
      Codec ID : S_TEXT/UTF8
      Codec ID/Info : UTF-8 Plain Text
      Title : commentary
      Language : English
Світлини










Джерело: &
Особиста оцінка: 0 - не дивився


Срібний реліз (на рейтинг впливає 50% завантаженого)
 Трекер:    Зареєстрований   

Завантажити / скачати мультфільм українською



відео для новачків



 Зареєстрований:   2012-07-26 17:40
 Розмір:   3.01 GB 
 Оцінка мультфільму:   9.6/10 (Голосів: 16)
   
Інші релізи
   Не бий копитом / Home On The Range (2004) 1080p Ukr/Eng | Sub Eng staf777  5 / 0   6.14 GB   2017-01-14 21:29 
   Не бий копитом / Home On The Range (2004) Ukr/Eng xslim  9 / 0   1.45 GB   2014-12-07 15:41 
   Не бий копитом / Home On The Range (2004) ata  2 / 0   1.01 GB   2008-12-08 20:45 
DiGen 
Модератор HD та координатор Команди HD
Модератор HD та координатор Команди HD


З нами з: 12.11.09
Востаннє: 24.06.13
Повідомлень: 1451

2012-07-26 21:55  
Лишню світлину (та, що дублюється) можна прибрати.
11FrYkT 
Модератор відео


З нами з: 20.02.11
Востаннє: 24.08.17
Повідомлень: 3825

2012-07-26 22:05  
DiGen , вона не дублюється, на 3 є хвіст на 2 нема і ще дрібниці. Знаю що це не суттєво, але так як не дублюються тому і залишив
igor911 
Відео Гуртом
Відео Гуртом


З нами з: 18.01.08
Востаннє: 24.08.17
Повідомлень: 7350

2014-11-15 22:35  
Ще український постер

igor911 
Відео Гуртом
Відео Гуртом


З нами з: 18.01.08
Востаннє: 24.08.17
Повідомлень: 7350

2014-12-07 13:09  
11FrYkT, онови, будь ласка, цей реліз - є доріжка з айтюнсу. https://toloka.to/t16141
Ваш часовий пояс: GMT + 2 Години

Нова тема   Відповісти