Тропічний ліс: Історія долини папороті / FernGully: The Last Rainforest (1992) 720p Ukr/Eng | Sub Eng

Нові коментарі

Нова тема   Відповісти
Автор Повідомлення
11FrYkT 
Модератор відео


З нами з: 20.02.11
Востаннє: 18.08.17
Повідомлень: 3807

2012-07-17 10:54  
Тропічний ліс: Історія долини папороті / FernGully: The Last Rainforest (1992) 720p Ukr/Eng | Sub Eng

Тропічний ліс: Історія долини папороті / FernGully: The Last Rainforest (1992) 720p Ukr/Eng | Sub Eng

«Ви вірите в людей?»



Жанр: анімація, пригодницький, казка, дитячий, комедія, сімейний
Країна: США



Кіностудія / кінокомпанія: 20-те Століття Фокс/20th Century Fox
Режисер: Біл Кроєр / Bill Kroyer
Актори: Тім Каррі, Саманта Метіс, Крістіан Слейтер, Джонатан Уорд, Робін Вільямс

Сюжет:
Раніше ліси були набагато більші, але з'явився Хексос, злий дух вирвався з центру Землі і почав знищувати ліс та дерева. І тільки закликавши магічні сили природи, вдалося запроторити Хексоса всередині могутнього дерева. Так починається цей неймовірний мультфільм. Тваринам і містичним маленьким істотам, що населяють Долину папороті загрожує смертельна небезпека, коли люди починають знищувати тропічний ліс своїми бульдозерами. Вони можуть випадково звільнити Хексоса, ув'язненого в дереві, і тоді він знову буде нести смерть всьому живому...


Тривалість: 01:15:53
Якість: 720р
Відео:
кодек:
розмір кадру: 1280 x 694
бітрейт: 8496 кб/с

Аудіо # 1:
мова: українська
переклад: двоголосий закадровий
кодек: 2.0
бітрейт: 192 кб/с
Подяка Merdiff

Аудіо # 2:
мова: англійська
переклад: оригінал
кодек: 5.1
бітрейт: 640 кб/с

Субтитри:
мова: англійська
тип: програмні (м'які)
формат: *.srt
Info
Код:
FernGully The Last Rainforest (1992) 720p.
   General
      UniqueID : 199408512263087435679194150940914111229 (0x9604AEB7E1D4988F97B1962EDD1A52FD)
      Complete name : FernGully The Last Rainforest (1992) 720p.
      Format :
      File size : 5.04 GiB
      Duration : 1h 15mn
      Overall bit rate : 9 518 Kbps
      Movie name : FernGully: The Last Rainforest (1992) 720p
      Encoded date : UTC 2012-07-15 10:52:50
      Writing application : mkvmerge v4.9.1 ('Ich will') зібрано Jul 11 2011 23:53:15
      Writing library : libebml v1.2.1 + libmatroska v1.1.1
      Cover : Yes / Yes
   Video #1
      ID : 1
      Format : AVC
      Format/Info : Advanced Video Codec
      Format profile : [email protected]
      Format settings, CABAC : Yes
      Format settings, ReFrames : 9 frames
      Codec ID : V_MPEG4/ISO/AVC
      Duration : 1h 15mn
      Bit rate : 8 496 Kbps
      Width : 1 280 pixels
      Height : 694 pixels
      Display aspect ratio : 16:9
      Frame rate : 23.976 fps
      Color space : YUV
      Chroma subsampling : 4:2:0
      Bit depth : 8 bits
      Scan type : Progressive
      Bits/(Pixel*Frame) : 0.399
      Stream size : 4.50 GiB (89%)
      Title : FernGully: The Last Rainforest (1992) 720p
      Writing library : core 122 r2184kMod 5c85e0a
      Encoding settings : cabac=1 / ref=9 / deblock=1:-3:-3 / analyse=0x3:0x113 / me=umh / subme=11 / psy=1 / fade_compensate=0.00 / psy_rd=1.00:0.00 / mixed_ref=1 / me_range=48 / chroma_me=1 / trellis=2 / 8x8dct=1 / cqm=0 / deadzone=21,11 / fast_pskip=1 / chroma_qp_offset=-2 / threads=12 / sliced_threads=0 / nr=0 / decimate=1 / interlaced=0 / bluray_compat=0 / constrained_intra=0 / bframes=14 / b_pyramid=2 / b_adapt=2 / b_bias=0 / direct=1 / weightb=1 / open_gop=0 / weightp=2 / keyint=250 / keyint_min=23 / scenecut=40 / intra_refresh=0 / rc_lookahead=40 / rc=crf / mbtree=0 / crf=18.0000 / qcomp=0.60 / qpmin=0 / qpmax=69 / qpstep=4 / vbv_maxrate=50000 / vbv_bufsize=62500 / crf_max=0.0 / nal_hrd=none / ip_ratio=1.40 / pb_ratio=1.30 / aq=3:0.70
      Language : English
      Matrix coefficients : BT.709-5, BT.1361, IEC 61966-2-4 709, SMPTE RP177
   Audio #2
      ID : 2
      Format : AC-3
      Format/Info : Audio Coding 3
      Mode extension : CM (complete main)
      Codec ID : A_AC3
      Duration : 1h 15mn
      Bit rate mode : Constant
      Bit rate : 192 Kbps
      Channel(s) : 2 channels
      Channel positions : Front: L R
      Sampling rate : 48.0 KHz
      Bit depth : 16 bits
      Compression mode : Lossy
      Stream size : 104 MiB (2%)
      Title : 2.0 @ 192 kbps - Двоголосий, Новий канал
      Language : Ukrainian
   Audio #3
      ID : 3
      Format : AC-3
      Format/Info : Audio Coding 3
      Mode extension : CM (complete main)
      Codec ID : A_AC3
      Duration : 1h 15mn
      Bit rate mode : Constant
      Bit rate : 640 Kbps
      Channel(s) : 6 channels
      Channel positions : Front: L C R, Side: L R, LFE
      Sampling rate : 48.0 KHz
      Bit depth : 16 bits
      Compression mode : Lossy
      Stream size : 347 MiB (7%)
      Title : 5.1 @ 640 kbps
      Language : English
   Text #4
      ID : 4
      Format : UTF-8
      Codec ID : S_TEXT/UTF8
      Codec ID/Info : UTF-8 Plain Text
      Language : English
Світлини










Джерело: &
Особиста оцінка: 0 - не дивився


Срібний реліз (на рейтинг впливає 50% завантаженого)
 Трекер:    Зареєстрований   

Завантажити / скачати мультфільм українською



відео для новачків



 Зареєстрований:   2012-07-17 10:54
 Розмір:   5.04 GB 
 Оцінка мультфільму:   8.5/10 (Голосів: 8)
   
braveboy 
Відео Гуртом - команда HD
Відео Гуртом - команда HD


З нами з: 15.06.10
Востаннє: 13.08.17
Повідомлень: 949

2012-07-17 13:31  
11FrYkT написано:
Info
Bit rate : 8 496 Kbps


11FrYkT написано:
бітрейт: 8682 кб/с

11FrYkT 
Модератор відео


З нами з: 20.02.11
Востаннє: 18.08.17
Повідомлень: 3807

2012-07-17 13:48  
braveboy , виправив. Забуваюсь звіряти
Ваш часовий пояс: GMT + 2 Години

Нова тема   Відповісти