Планета скарбів / Treasure planet (2002) 720p Ukr/Eng | Sub Eng

Нові коментарі

Нова тема   Відповісти
Автор Повідомлення
11FrYkT 
Модератор відео


З нами з: 20.02.11
Востаннє: 23.08.17
Повідомлень: 3821

2012-07-11 13:28  
Планета скарбів / Treasure planet (2002) 720p Ukr/Eng | Sub Eng

Планета скарбів / Treasure planet (2002) 720p Ukr/Eng | Sub Eng

«Знайди своє місце у Всесвіті. »



Жанр: анімація, фантастика, пригодницький
Країна: США



Кіностудія / кінокомпанія: Walt Disney Animation Studios
Режисер: Рон Клементс, Джон Мушкер
Актори: Роско Лі Браун, Корі Бертон, Дейн А. Девіс, Джозеф Гордон-Левітт, Тоні Джей, Остін Мейджерс та інші.

Сюжет:
15-річний Джим Хоукінс вирушає на пошуки таємничої Планети Скарбів в компанії справжніх космічних піратів. Під керівництвом корабельного кока, кіборга Джона Сільвера, він стає вмілим «космоплавцем» і не раз рятує космічний галеон від найсерйозніших небезпек: чорних дірок, вибухів і космічних штормів.


Тривалість: 01:35:23
Якість: 720p
Відео:
кодек:
розмір кадру: 1212 x 720
бітрейт: 4000 кб/с

Аудіо # 1:
мова: українська
переклад: професійний дубльований
кодек: 2.0
бітрейт: 192 кб/с

Аудіо # 2:
мова: англійська
переклад: оригінал
кодек: 5.1
бітрейт: 640 кб/с

Аудіо # 3:
мова: англійська
переклад: оригінал
кодек: 2.0
бітрейт: 192 кб/с

Джерело озвучення:


Субтитри:
мова: англійська
тип: програмні (м'які)
формат: *.srt
Info
Код:
Treasure planet (2002) 720p.
   General
      UniqueID : 188649202552263924521271146406250949672 (0x8DEC83CB1D15DD6BB70BBA6CA5BA2C28)
      Complete name : Treasure planet (2002) 720p.
      Format :
      File size : 3.26 GiB
      Duration : 1h 35mn
      Overall bit rate : 4 898 Kbps
      Encoded date : UTC 2012-07-11 10:17:01
      Writing application : mkvmerge v4.9.1 ('Ich will') зібрано Jul 11 2011 23:53:15
      Writing library : libebml v1.2.1 + libmatroska v1.1.1
   Video #1
      ID : 1
      Format : AVC
      Format/Info : Advanced Video Codec
      Format profile : [email protected]
      Format settings, CABAC : Yes
      Format settings, ReFrames : 9 frames
      Codec ID : V_MPEG4/ISO/AVC
      Duration : 1h 35mn
      Nominal bit rate : 4 000 Kbps
      Width : 1 212 pixels
      Height : 720 pixels
      Display aspect ratio : 1.683
      Frame rate : 23.976 fps
      Color space : YUV
      Chroma subsampling : 4:2:0
      Bit depth : 8 bits
      Scan type : Progressive
      Bits/(Pixel*Frame) : 0.191
      Writing library : core 125 r2200 999b753
      Encoding settings : cabac=1 / ref=9 / deblock=1:-3:-3 / analyse=0x3:0x113 / me=tesa / subme=11 / psy=1 / psy_rd=0.60:0.00 / mixed_ref=1 / me_range=16 / chroma_me=1 / trellis=2 / 8x8dct=1 / cqm=0 / deadzone=21,11 / fast_pskip=0 / chroma_qp_offset=-2 / threads=12 / lookahead_threads=2 / sliced_threads=0 / nr=0 / decimate=0 / interlaced=0 / bluray_compat=0 / constrained_intra=0 / bframes=6 / b_pyramid=2 / b_adapt=2 / b_bias=0 / direct=3 / weightb=1 / open_gop=0 / weightp=2 / keyint=250 / keyint_min=23 / scenecut=40 / intra_refresh=0 / rc=2pass / mbtree=0 / bitrate=4000 / ratetol=1.0 / qcomp=0.55 / qpmin=0 / qpmax=69 / qpstep=4 / cplxblur=20.0 / qblur=0.5 / ip_ratio=1.40 / pb_ratio=1.30 / aq=1:1.00
      Language : English
   Audio #2
      ID : 2
      Format : AC-3
      Format/Info : Audio Coding 3
      Mode extension : CM (complete main)
      Codec ID : A_AC3
      Duration : 1h 35mn
      Bit rate mode : Constant
      Bit rate : 192 Kbps
      Channel(s) : 2 channels
      Channel positions : Front: L R
      Sampling rate : 48.0 KHz
      Bit depth : 16 bits
      Compression mode : Lossy
      Stream size : 131 MiB (4%)
      Title : 2.0 @ 192 kb/s
      Language : Ukrainian
   Audio #3
      ID : 3
      Format : AC-3
      Format/Info : Audio Coding 3
      Mode extension : CM (complete main)
      Codec ID : A_AC3
      Duration : 1h 35mn
      Bit rate mode : Constant
      Bit rate : 640 Kbps
      Channel(s) : 6 channels
      Channel positions : Front: L C R, Side: L R, LFE
      Sampling rate : 48.0 KHz
      Bit depth : 16 bits
      Compression mode : Lossy
      Stream size : 437 MiB (13%)
      Title : 5.1 @ 640 kb/s
      Language : English
   Audio #4
      ID : 4
      Format :
      Format/Info : Advanced Audio Codec
      Format version : Version 4
      Format profile : LC
      Format settings, SBR : Yes
      Format settings, PS : No
      Codec ID : A_AAC
      Duration : 1h 35mn
      Channel(s) : 2 channels
      Channel positions : Front: L R
      Sampling rate : 48.0 KHz
      Compression mode : Lossy
      Video delay : 31ms
      Title : Commentary
      Language : English
   Text #5
      ID : 5
      Format : UTF-8
      Codec ID : S_TEXT/UTF8
      Codec ID/Info : UTF-8 Plain Text
      Language : English
Світлини








Джерело:
Особиста оцінка: 0 - не дивився


Срібний реліз (на рейтинг впливає 50% завантаженого)
 Трекер:    Зареєстрований   

Завантажити / скачати мультфільм українською



відео для новачків



 Зареєстрований:   2012-07-11 13:28
 Розмір:   3.26 GB 
 Оцінка мультфільму:   8.7/10 (Голосів: 14)
   
Інші релізи
DiGen 
Модератор HD та координатор Команди HD
Модератор HD та координатор Команди HD


З нами з: 12.11.09
Востаннє: 24.06.13
Повідомлень: 1451

2012-07-11 13:31  
11FrYkT написано:
[/spoiler]

Лишнє, видалити

11FrYkT 
Модератор відео


З нами з: 20.02.11
Востаннє: 23.08.17
Повідомлень: 3821

2012-07-11 13:38  
DiGen , я думав що я його видалив. Виправив
karvai0 
Відео Гуртом - запис з ТБ
Відео Гуртом - запис з ТБ


З нами з: 18.01.10
Востаннє: 11.08.17
Повідомлень: 3677

2012-07-11 13:52  
11FrYkT написано:
Sub Ukr

де?

snupy.krot 
Новенький


З нами з: 08.09.12
Востаннє: 30.03.16
Повідомлень: 1

2013-01-07 22:17  
Клас. І якість відео, і озвучення. Дякую за роздачу
Drool 
VIP


З нами з: 17.04.10
Востаннє: 23.08.17
Повідомлень: 1376

2013-01-08 00:20  
Цікаво, існує роздача з хешем 941830924ded4b9009018d927de100d2ed17d23f і з вказаною тривалістю 01:31:42, де зявлено про доріжку "українська. професійний дубльований... 5.1 384 кб/с"...
Ваш часовий пояс: GMT + 2 Години

Нова тема   Відповісти