Едіт і Я / Technotise: Edit i ja / Edit and I (2009) 720р Srp | Sub Ukr/Eng

Нові коментарі

Нова тема   Відповісти
Автор Повідомлення
Hanway 
Відео Гуртом - запис з ТБ
Відео Гуртом - запис з ТБ


З нами з: 20.05.11
Востаннє: 23.08.17
Повідомлень: 488

2012-07-02 21:00  
Едіт і Я / Technotise: Edit i ja / Edit and I

Едіт і Я / Technotise: Edit i ja / Edit and I (2009) 720р Srp | Sub Ukr/Eng


Жанр: наукова фантастика, кіберпанк
Країна: Сербія



Кіностудія / кінокомпанія: Black White 'N' Green Animation Studio, Yodi Movie Craftsman
Режисер: Алекса Гаїч / Aleksa Gajic, Небойша Андрич / Nebojsa Andric, Стеван Джорджевич / Stevan Djordjevic
Актори: Санда Кнєжевич, Небойша Глоговац, Єлисавета Сабліч, Петар Краль, Нікола Джуричко, Борис Мілівоєвич, Срджан Тодорович, Марія Каран, Тетяна Джорджевич, Власта Велісавлевич, Срджан Мілетич, Ігор Бугарскі

Сюжет:
2074 рік. Сербія, Белград. У місті мчать літаючі машини, а люди у вільний час розважаються у віртуальних світах. Головна героїня, студентка Едіт Стефанович з неблагополучної сім'ї, вшосте завалює іспит. Вона вирішує купити на чорному ринку військовий мікрочіп, який підвищує працездатність мозку, що дозволяє ледачому студентові всього за день вивчити всю навчальну програму. Едіт з легкістю здає іспит на відмінно, але наслідки виявляються досить неприємними...

Дітям до 16 не рекомендується.

Тривалість: 01:29:51
Якість:
Відео:
кодек:
розмір кадру: 1280x688
бітрейт: 5000 кб/с

Аудіо:
мова: сербська
переклад: оригінал
кодек: 5.1
бітрейт: 448 кб/с

Субтитри:
мова: українська [by Hanway]
тип: програмні (м'які)
формат: *.srt

Субтитри:
мова: англійська
тип: програмні (м'які)
формат: *.srt
Info
General
Unique ID : 234581917669749401926781785844040723092 (0xB07AD57EBE373777914F73B20DD1EA94)
Complete name : D:\Technotise - Edit i ja (2009) [Srp, sub Ukr,Eng] 720p [Hurtom].
Format :
Format version : Version 2
File size : 3.42 GiB
Duration : 1h 29mn
Overall bit rate mode : Variable
Overall bit rate : 5 451 Kbps
Movie name : Едіт і Я / Technotise: Edit i ja [Hurtom.com]
Encoded date : UTC 2012-07-02 16:57:53
Writing application : mkvmerge v5.6.0 ('Kenya Kane') built on May 27 2012 16:44:04
Writing library : libebml v1.2.3 + libmatroska v1.3.0

Video
ID : 1
Format : AVC
Format/Info : Advanced Video Codec
Format profile : [email protected]
Format settings, CABAC : Yes
Format settings, ReFrames : 7 frames
Codec ID : V_MPEG4/ISO/AVC
Duration : 1h 29mn
Bit rate mode : Variable
Bit rate : 5 000 Kbps
Maximum bit rate : 14.0 Mbps
Width : 1 280 pixels
Height : 688 pixels
Display aspect ratio : 1.85:1
Original display aspect ratio : 1.85:1
Frame rate : 23.976 fps
Color space : YUV
Chroma subsampling : 4:2:0
Bit depth : 8 bits
Scan type : Progressive
Bits/(Pixel*Frame) : 0.237
Stream size : 3.07 GiB (90%)
Writing library : core 115 r1995 c1e60b9
Encoding settings : cabac=1 / ref=8 / deblock=1:1:1 / analyse=0x3:0x133 / me=umh / subme=9 / psy=1 / psy_rd=0.40:0.00 / mixed_ref=1 / me_range=16 / chroma_me=1 / trellis=2 / 8x8dct=1 / cqm=0 / deadzone=21,11 / fast_pskip=1 / chroma_qp_offset=-2 / threads=4 / sliced_threads=0 / slices=4 / nr=0 / decimate=1 / interlaced=0 / bluray_compat=0 / constrained_intra=0 / bframes=3 / b_pyramid=1 / b_adapt=2 / b_bias=0 / direct=3 / weightb=1 / open_gop=0 / weightp=0 / keyint=24 / keyint_min=2 / scenecut=40 / intra_refresh=0 / rc_lookahead=24 / rc=2pass / mbtree=1 / bitrate=5000 / ratetol=1.0 / qcomp=0.60 / qpmin=0 / qpmax=69 / qpstep=4 / cplxblur=20.0 / qblur=0.5 / vbv_maxrate=14000 / vbv_bufsize=14500 / nal_hrd=vbr / ip_ratio=1.40 / aq=1:0.60
Language : Serbian
Default : Yes
Forced : No
Color primaries : BT.709-5, BT.1361, IEC 61966-2-4, SMPTE RP177
Transfer characteristics : BT.709-5, BT.1361
Matrix coefficients : BT.709-5, BT.1361, IEC 61966-2-4 709, SMPTE RP177

Audio
ID : 2
Format : AC-3
Format/Info : Audio Coding 3
Mode extension : CM (complete main)
Format settings, Endianness : Big
Codec ID : A_AC3
Duration : 1h 29mn
Bit rate mode : Constant
Bit rate : 448 Kbps
Channel(s) : 6 channels
Channel positions : Front: L C R, Side: L R, LFE
Sampling rate : 48.0 KHz
Bit depth : 16 bits
Compression mode : Lossy
Stream size : 288 MiB (8%)
Language : Serbian
Default : Yes
Forced : No

Text #1
ID : 3
Format : UTF-8
Codec ID : S_TEXT/UTF8
Codec ID/Info : UTF-8 Plain Text
Title : by jonas93
Language : Ukrainian
Default : Yes
Forced : Yes

Text #2
ID : 4
Format : UTF-8
Codec ID : S_TEXT/UTF8
Codec ID/Info : UTF-8 Plain Text
Language : English
Default : No
Forced : No
Скріншоти


















Джерело: &
Особиста оцінка: 10 - без зайвих вагань рекомендую всім!


Золотий реліз (завантажене не впливає на рейтинг)
 Трекер:    Зареєстрований   

Завантажити / скачати мультфільм українською



відео для новачків



 Зареєстрований:   2012-07-02 21:00
 Розмір:   3.42 GB 
 Оцінка мультфільму:   10/10 (Голосів: 14)
   
Інші релізи
   Едіт і Я / Technotise: Edit i ja / Edit and I (2009) [HWP] FBRUA  3 / 0   880 MB   2014-06-16 03:28 
   Едіт і Я / Technotise: Edit i ja / Edit and I (2009) [640х344] FBRUA  0 / 0   522 MB   2014-06-16 03:11 
   Едіт і Я / Technotise: Edit i ja / Edit and I (2009) 720р Ukr/Srp FBRUA  7 / 0   3.7 GB   2014-06-16 02:22 
natashelka 
VIP


З нами з: 23.05.10
Востаннє: 24.08.17
Повідомлень: 453

2012-07-03 19:28  
ну-мо, втикнемо сербський кіберпанк!
Оповідач 
Поважний учасник


З нами з: 13.03.11
Востаннє: 24.08.17
Повідомлень: 196

2012-12-02 03:43  
Переклав би хто...

Додано через 31 секунду:

Тобто озвучив.

vatanuki 
Свій


З нами з: 23.09.11
Востаннє: 23.08.17
Повідомлень: 68

2012-12-21 05:43  
natashelka написано:
ну-мо, втикнемо сербський кіберпанк!

реально крутий кіберпанк, серби рулять

Ваш часовий пояс: GMT + 2 Години

Нова тема   Відповісти