Хороший, поганий, злий / Il buono, il brutto, il cattivo / The Good, the Bad and the Ugly [Extended Edition] (1966) [iPod Classic,320x136]

Нові коментарі

Нова тема   Відповісти
Останній раз роздавалося LO2010 (2020-11-04)

Увійдіть, щоб проголосувати
Автор Повідомлення
Бузьок 
програми
програми


З нами з: 18.10.09
Востаннє: 05.12.20
Повідомлень: 1002

2012-06-18 01:12  
Хороший, поганий, злий / Il buono, il brutto, il cattivo / The Good, the Bad and the Ugly [Extended Edition]
[iPod Classic,320x136]





Жанр: пригодницький, вестерн
Країна: Італія, Іспанія, Німеччина
Режисер: Серджіо Леоне
Актори: Елі Уоллах, Клінт Іствуд, Чі Ван Кліф, Альдо Джуффре, Луїджі Пістіллі, Рада Рассимов, Енцо Петіто, Клаудіо Ськаркиллі, Джон Барта, Лівіо Лоренцон
В розпал громадянської війни таємничий стрілець поневіряється по просторах Дикого Заходу. У нього немає ні дому, ні друзів, ні компаньйонів, поки він не зустрічає двох незнайомців, таких же безжальних і цинічних.
Тривалість:
Якість:
Відео:
кодек:
розмір кадру: 320 х 136
бітрейт: 400 кб/с

Аудіо:
мова: українська
переклад: багатоголосий закадровий
кодек: 2.0
бітрейт: 128 кб/с
Info:
Код:
General
Complete name                            : D:\Il buono, il brutto, il cattivo (1966) [iPod Classic,320x136].[Hurtom] by Buzyok.mp4
Format                                   : MPEG-4
Format profile                           : Base Media
Codec ID                                 : isom
File size                                : 680 MiB
Duration                                 : 2h 58mn
Overall bit rate mode                    : Variable
Overall bit rate                         : 532 Kbps
Movie name                               : Il buono, il brutto, il cattivo
Genre                                    : Adventure, Classics, Military & War, Western
Recorded date                            : 1966
Tagged date                              : UTC 2012-06-18 11:25:40
Cover                                    : Yes
Comment                                  : rip by Buzyok for Hurtom.com
iTunMOVI                                 : <?xml version="1.0" encoding="UTF-8"?> / <!DOCTYPE plist PUBLIC "-//Apple//DTD PLIST 1.0//EN" "http://www.apple.com/DTDs/PropertyList-1.0.dtd"> / <plist version="1.0"> / <dict> /   <key>cast</key> /   <array> /     <dict> /       <key>name</key> /       <string>Клінт Іствуд</string> /     </dict> /     <dict> /       <key>name</key> /       <string>Лі Ван Кліф</string> /     </dict> /     <dict> /       <key>name</key> /       <string>Ілай Воллак</string> /     </dict> /   </array> /   <key>directors</key> /   <array> /     <dict> /       <key>name</key> /       <string>Серджіо Леоне</string> /     </dict> /   </array> /   <key>producers</key> /   <array> /     <dict> /       <key>name</key> /       <string>Альберто Грімальді</string> /     </dict> /   </array> /   <key>screenwriters</key> /   <array> /     <dict> /       <key>name</key> /       <string>Лучано Вінченцоні</string> /     </dict> /   </array> / </dict> / </plist>
desc                                     : В розпал громадянської війни таємничий стрілець поневіряється по просторах Дикого Заходу.
ldes                                     : В розпал громадянської війни таємничий стрілець поневіряється по просторах Дикого Заходу. У нього немає ні дому, ні друзів, ні компаньйонів, поки він не зустрічає двох незнайомців, таких же безжальних і цинічних.
stik                                     : 9

Video
ID                                       : 1
Format                                   : AVC
Format/Info                              : Advanced Video Codec
Format profile                           : [email protected]
Format settings, CABAC                   : No
Format settings, ReFrames                : 3 frames
Codec ID                                 : avc1
Codec ID/Info                            : Advanced Video Coding
Duration                                 : 2h 58mn
Bit rate                                 : 400 Kbps
Width                                    : 320 pixels
Height                                   : 136 pixels
Display aspect ratio                     : 2.35:1
Frame rate mode                          : Constant
Frame rate                               : 23.976 fps
Color space                              : YUV
Chroma subsampling                       : 4:2:0
Bit depth                                : 8 bits
Scan type                                : Progressive
Bits/(Pixel*Frame)                       : 0.383
Stream size                              : 511 MiB (75%)
Writing library                          : core 120 r2146M bcd41db
Encoding settings                        : cabac=0 / ref=3 / deblock=1:0:0 / analyse=0x1:0x131 / me=hex / subme=7 / psy=1 / psy_rd=1.00:0.20 / mixed_ref=1 / me_range=16 / chroma_me=1 / trellis=1 / 8x8dct=0 / cqm=0 / deadzone=21,11 / fast_pskip=1 / chroma_qp_offset=-3 / threads=6 / sliced_threads=0 / nr=0 / decimate=1 / interlaced=0 / bluray_compat=0 / constrained_intra=0 / bframes=0 / weightp=0 / keyint=230 / keyint_min=23 / scenecut=40 / intra_refresh=0 / rc_lookahead=40 / rc=cbr / mbtree=1 / bitrate=400 / ratetol=1.0 / qcomp=0.60 / qpmin=10 / qpmax=51 / qpstep=4 / vbv_maxrate=400 / vbv_bufsize=2000 / nal_hrd=none / ip_ratio=1.40 / aq=1:1.00
Language                                 : English

Audio
ID                                       : 2
Format                                   :
Format/Info                              : Advanced Audio Codec
Format profile                           : LC
Codec ID                                 : 40
Duration                                 : 2h 58mn
Bit rate mode                            : Variable
Bit rate                                 : 128 Kbps
Maximum bit rate                         : 169 Kbps
Channel(s)                               : 2 channels
Channel positions                        : Front: L R
Sampling rate                            : 48.0 KHz
Compression mode                         : Lossy
Stream size                              : 164 MiB (24%)
Language                                 : Ukrainian

iTunes:
Скріншоти:





Джерело:
Особиста оцінка: 10 - без зайвих вагань рекомендую всім!


Срібний реліз (на рейтинг впливає 50% завантаженого)
 Трекер:    Зареєстрований   

Завантажити / скачати торрент



відео для новачків



 Зареєстрований:   2012-06-18 22:04
 Розмір:   680 MB 
 Оцінка:   9.2/10 (Голосів: 26)
   
fyfufrb 
Свій


З нами з: 07.10.09
Востаннє: 09.01.21
Повідомлень: 102

2014-05-21 21:04  
"Хороший" ТАК ЦЕ Ж ПО РОСІЙСЬКИ !!!!!
ВИПРАВТЕ.....

фростіш_дурак 
Забанено
Забанено


З нами з: 13.11.14
Востаннє: 17.11.14
Повідомлень: 63

2014-11-14 04:10  
Прикольний фільмець . Спс.
Karsten1 
Новенький


З нами з: 09.09.13
Востаннє: 07.01.21
Повідомлень: 13

2015-11-08 16:20  
фростіш_дурак написано:
"Хороший" ТАК ЦЕ Ж ПО РОСІЙСЬКИ !!!!!

"Хороший" ТАК ЦЕ Ж ПО РОСІЙСЬКИ !!!!!
Ліпше бути російською, ніж рагульським суржиком - тобто "ПО РОСІЙСЬКИ"

Ваш часовий пояс: GMT + 2 Години

Нова тема   Відповісти