Американський хвіст / An American Tail (1986) 720p Ukr/Eng | Sub Eng

Нові коментарі

Нова тема   Відповісти
Автор Повідомлення
braveboy 
Відео Гуртом - команда HD
Відео Гуртом - команда HD


З нами з: 15.06.10
Востаннє: 13.08.17
Повідомлень: 949

2012-06-11 05:59  

Американський хвіст / An American Tail (1986) 720p Ukr/Eng | Sub Eng



Жанр: анімаційний, сімейний, пригодницький
Країна: США



Кіностудія / кінокомпанія: Amblin Entertainment, Sullivan Bluth Studios, Universal Pictures
Режисер: Дон Блаз / Don Bluth
Актори: Еріка Йон / Erica Yohn, Нехемія Персофф / Nehemiah Persoff, Емі Ґрін / Amy Green, Філліпс Ґлассер / Phillip Glasser, Крістофер Пламмер / Christopher Plummer, Джон Фінеган / John Finnegan, Уїлл Райан / Will Ryan, Гел Сміт / Hal Smith, Пет Мусік / Pat Musick, Катіан Блур / Cathianne Blore, Ніл Росс / Neil Ross, Медлін Кан / Madeline Kahn, Дом ДеЛюіс / Dom DeLuise

Сюжет:
Фільм оповідає про дивовижні пригоди маленького відважного мишеняти на ім'я Фівел. Корабель, на якому він відправився в подорож з Росії в Америку на рубежі 19 і 20 століть, був застигнутий страшним штормом, і Фівел виявився один у відкритому морі. Хвилі винесли його на берег в Нью-Йоркському порту. Фівел сміливо вирушає на пошуки своєї сім'ї назустріч небезпекам і захоплюючим пригодам в новому, незнайомому світі.



Тривалість: 01:20:17
Якість: 720p
Відео:
кодек:
розмір кадру: 1280 x 694
бітрейт: 4500 кб/с
frame rate: 23.976 fps

Аудіо # 1:
мова: українська [ICTV]
переклад: багатоголосий закадровий
кодек: 2.0
бітрейт: 192 кб/с

Аудіо # 2:
мова: англійська
переклад: оригінал
кодек: 5.1
бітрейт: 640 кб/с

Джерело озвучення:


Субтитри:
мова: англійська
тип: програмні (м'які)
формат: *.srt

Цитата:
Подяка:
xslim за наданий сирий звук, Gelios за українізований постер, karvai0 за синхронізацію
Info

Video
ID : 1
Format : AVC
Format/Info : Advanced Video Codec
Format profile : [email protected]
Format settings, CABAC : Yes
Format settings, ReFrames : 9 frames
Codec ID : V_MPEG4/ISO/AVC
Duration : 1h 20mn
Bit rate : 4 500 Kbps
Width : 1 280 pixels
Height : 694 pixels
Display aspect ratio : 1.85:1
Frame rate mode : Constant
Frame rate : 23.976 fps
Color space : YUV
Chroma subsampling : 4:2:0
Bit depth : 8 bits
Scan type : Progressive
Bits/(Pixel*Frame) : 0.211
Stream size : 2.47 GiB (82%)
Title : An American Tail (1986) 720p
Writing library : core 142 r2389+41 02cb608 tMod [[email protected]:2:0 X86_64]
Encoding settings : cabac=1 / ref=9 / deblock=1:-3:-3 / analyse=0x3:0x113 / me=umh / subme=11 / psy=1 / fade_compensate=0.00 / psy_rd=1.00:0.20 / mixed_ref=1 / me_range=32 / chroma_me=1 / trellis=2 / 8x8dct=1 / cqm=0 / deadzone=21,11 / fast_pskip=0 / chroma_qp_offset=-3 / threads=12 / lookahead_threads=3 / sliced_threads=0 / nr=0 / decimate=0 / interlaced=0 / bluray_compat=0 / constrained_intra=0 / fgo=0 / bframes=12 / b_pyramid=2 / b_adapt=2 / b_bias=0 / direct=3 / weightb=1 / open_gop=0 / weightp=2 / keyint=240 / keyint_min=23 / scenecut=40 / intra_refresh=0 / rc_lookahead=40 / rc=2pass / mbtree=1 / bitrate=4500 / ratetol=1.0 / qcomp=0.60 / qpmin=0:0:0 / qpmax=69:69:69 / qpstep=4 / cplxblur=20.0 / qblur=0.5 / ip_ratio=1.40 / aq=2:0.60 / aq-sensitivity=10.00 / aq-factor=1.00:1.00:1.00 / aq2=0 / aq3=0
Language : English
Default : Yes
Forced : No

Audio #1
ID : 2
Format : AC-3
Format/Info : Audio Coding 3
Mode extension : CM (complete main)
Format settings, Endianness : Big
Codec ID : A_AC3
Duration : 1h 20mn
Bit rate mode : Constant
Bit rate : 192 Kbps
Channel(s) : 2 channels
Channel positions : Front: L R
Sampling rate : 48.0 KHz
Bit depth : 16 bits
Compression mode : Lossy
Stream size : 110 MiB (4%)
Title : 2.0 @ 192 kbps [ICTV]
Language : Ukrainian
Default : Yes
Forced : No

Audio #2
ID : 3
Format : AC-3
Format/Info : Audio Coding 3
Mode extension : CM (complete main)
Format settings, Endianness : Big
Codec ID : A_AC3
Duration : 1h 20mn
Bit rate mode : Constant
Bit rate : 640 Kbps
Channel(s) : 6 channels
Channel positions : Front: L C R, Side: L R, LFE
Sampling rate : 48.0 KHz
Bit depth : 16 bits
Compression mode : Lossy
Stream size : 368 MiB (12%)
Title : 5.1 @ 640 kbps
Language : English
Default : No
Forced : No

Text
ID : 4
Format : UTF-8
Codec ID : S_TEXT/UTF8
Codec ID/Info : UTF-8 Plain Text
Title : Full
Language : English
Default : Yes
Forced : No

Menu
00:00:00.000 : en:Chapter 01
00:03:08.229 : en:Chapter 02
00:04:29.560 : en:Chapter 03
00:08:02.940 : en:Chapter 04
00:11:39.573 : en:Chapter 05
00:14:32.997 : en:Chapter 06
00:18:38.158 : en:Chapter 07
00:24:14.744 : en:Chapter 08
00:27:20.764 : en:Chapter 09
00:34:12.008 : en:Chapter 10
00:38:02.405 : en:Chapter 11
00:40:49.613 : en:Chapter 12
00:43:28.897 : en:Chapter 13
00:47:52.369 : en:Chapter 14
00:53:51.519 : en:Chapter 15
00:58:35.720 : en:Chapter 16
01:05:37.892 : en:Chapter 17
01:08:23.724 : en:Chapter 18
01:14:10.904 : en:Chapter 19
01:15:35.322 : en:Chapter 20
Скріншоти




Джерело:
Особиста оцінка: 10 - без зайвих вагань рекомендую всім!


Срібний реліз (на рейтинг впливає 50% завантаженого)
 Трекер:    Зареєстрований   

Завантажити / скачати мультфільм українською



відео для новачків



 Зареєстрований:   2014-05-16 23:45
 Розмір:   3 GB 
 Оцінка мультфільму:   10/10 (Голосів: 15)
   
Інші релізи
BMK12 
Відео Гуртом - підтримка та поширення
Відео Гуртом - підтримка та поширення


З нами з: 13.04.09
Востаннє: 21.08.17
Повідомлень: 3110

2013-11-07 11:41  
Прохання роздати.
igor911 
Відео Гуртом
Відео Гуртом


З нами з: 18.01.08
Востаннє: 21.08.17
Повідомлень: 7311

2014-05-17 00:30  
А що трапилося? Чому оновили торрент?
braveboy 
Відео Гуртом - команда HD
Відео Гуртом - команда HD


З нами з: 15.06.10
Востаннє: 13.08.17
Повідомлень: 949

2014-05-17 00:32  
igor911 написано:
А що трапилося? Чому оновили торрент?

720p замінено на 720p

leroykendall 
Модератор HD


З нами з: 03.01.11
Востаннє: 20.08.17
Повідомлень: 750

2014-05-17 09:49  
braveboy написано:
720p замінено на 720p

Дякую. Щодо другой частини заміна не планується?

braveboy 
Відео Гуртом - команда HD
Відео Гуртом - команда HD


З нами з: 15.06.10
Востаннє: 13.08.17
Повідомлень: 949

2014-05-17 17:59  
leroykendall написано:
Дякую. Щодо другой частини заміна не планується?

вийде Blu-ray тоді оновлю Happy

Ваш часовий пояс: GMT + 2 Години

Нова тема   Відповісти