Льодовиковий період 2: Глобальне потепління / Ice Age: The Meltdown (2006) 1080р Ukr/Eng | Sub Eng

Нові коментарі

Нова тема   Відповісти
Автор Повідомлення
braveboy 
Відео Гуртом - команда HD
Відео Гуртом - команда HD


З нами з: 15.06.10
Востаннє: 13.08.17
Повідомлень: 949

2012-06-03 08:11  

Льодовиковий період 2: Глобальне потепління / Ice Age: The Meltdown (2006)
1080р Ukr/Eng | Sub Eng



«Зима закінчилась!»


Жанр: анімація, комедія, сімейний
Країна: США



Кіностудія / кінокомпанія: Blue Sky Studios, 20th Century Fox
Режисер: Карлос Салдана (Carlos Saldanha)
Актори: Рей Романо (Менні) Джон Легуізамо (Сід) Денис Лірі (Дієго) Куин Латифа (Еллі) Кріс Уедж (Скрет)

Сюжет:
Льодовиковий період закінчився, і долині, де живуть Менні, Діего та Сід загрожує повінь Їм доведеться об'єднатися, щоб попередити про небезпеку інших жителів.


Тривалість: 01:30:36
Якість: 1080р
Відео:
кодек:
розмір кадру: 1920 x 1032
бітрейт: 9600 кб/с

Аудіо # 1:
мова: українська
переклад: професійний дубльований
кодек: 2.0
бітрейт: 384 кб/с

Аудіо # 2:
мова: англійська
переклад: оригінал
кодек: 5.1
бітрейт: 1510 кб/с

Джерело озвучення:
ТО "Цікава ідея" на замовлення Hurtom.com

Субтитри:
мова: англійська
тип: програмні (м'які)
формат: *.ass
Info
General
Unique ID : 170156263976771482575386452098844719053 (0x8002E786E038830389B81E753033F7CD)
Complete name : E:\Temp\Ice Age The Meltdown (2006) 1080p [HURTOM].
Format :
Format version : Version 2
File size : 7.28 GiB
Duration : 1h 30mn
Overall bit rate : 11.5 Mbps
Movie name : Ice Age: The Meltdown (2006) 720р
Encoded date : UTC 2012-06-03 04:17:29
Writing application : mkvmerge v5.6.0 ('Kenya Kane') built on May 27 2012 16:44:04
Writing library : libebml v1.2.3 + libmatroska v1.3.0
Attachment : Yes / Yes / Yes / Yes / Yes / Yes

Video
ID : 1
Format : AVC
Format/Info : Advanced Video Codec
Format profile : [email protected]
Format settings, CABAC : Yes
Format settings, ReFrames : 9 frames
Codec ID : V_MPEG4/ISO/AVC
Duration : 1h 30mn
Bit rate : 9 600 Kbps
Width : 1 920 pixels
Height : 1 032 pixels
Display aspect ratio : 1.85:1
Frame rate : 23.976 fps
Color space : YUV
Chroma subsampling : 4:2:0
Bit depth : 8 bits
Scan type : Progressive
Bits/(Pixel*Frame) : 0.202
Stream size : 5.93 GiB (82%)
Title : Ice Age: The Meltdown (2006) 720р
Writing library : core 54 svn-622
Encoding settings : cabac=1 / ref=6 / deblock=1:0:0 / analyse=0x3:0x133 / me=umh / subme=7 / brdo=1 / mixed_ref=1 / me_range=24 / chroma_me=1 / trellis=1 / 8x8dct=1 / cqm=2 / deadzone=21,11 / chroma_qp_offset=0 / threads=2 / nr=0 / decimate=0 / mbaff=0 / bframes=4 / b_pyramid=1 / b_adapt=1 / b_bias=0 / direct=1 / wpredb=1 / bime=1 / keyint=250 / keyint_min=25 / scenecut=40(pre) / rc=2pass / bitrate=9600 / ratetol=1.0 / rceq='blurCplx^(1-qComp)' / qcomp=0.60 / qpmin=10 / qpmax=51 / qpstep=4 / cplxblur=20.0 / qblur=0.5 / ip_ratio=1.40 / pb_ratio=1.30
Language : English
Default : Yes
Forced : No

Audio #1
ID : 2
Format : AC-3
Format/Info : Audio Coding 3
Mode extension : CM (complete main)
Format settings, Endianness : Big
Codec ID : A_AC3
Duration : 1h 30mn
Bit rate mode : Constant
Bit rate : 384 Kbps
Channel(s) : 2 channels
Channel positions : Front: L R
Sampling rate : 48.0 KHz
Bit depth : 16 bits
Compression mode : Lossy
Stream size : 249 MiB (3%)
Title : 2.0 - 384 kbps [Hurtom-Cikava-Ideja]
Language : Ukrainian
Default : Yes
Forced : No

Audio #2
ID : 3
Format :
Format/Info : Digital Theater Systems
Codec ID : A_DTS
Duration : 1h 30mn
Bit rate mode : Constant
Bit rate : 1 510 Kbps
Channel(s) : 6 channels
Channel positions : Front: L C R, Side: L R, LFE
Sampling rate : 48.0 KHz
Bit depth : 24 bits
Compression mode : Lossy
Stream size : 978 MiB (13%)
Title : 5.1 - 1536 kbps
Language : English
Default : No
Forced : No

Text
ID : 4
Format : ASS
Codec ID : S_TEXT/ASS
Codec ID/Info : Advanced Sub Station Alpha
Compression mode : Lossless
Title : Full
Language : English
Default : No
Forced : No
Скріншоти






Джерело: &
Особиста оцінка: 10 - без зайвих вагань рекомендую всім!


 Трекер:    Зареєстрований   

Завантажити / скачати мультфільм українською



відео для новачків



 Зареєстрований:   2012-06-03 08:12
 Розмір:   7.28 GB 
 Оцінка мультфільму:   9.8/10 (Голосів: 13)
   
ternopiler 
Частий відвідувач


З нами з: 09.05.11
Востаннє: 23.07.17
Повідомлень: 43

2012-06-03 09:31  
Автора прошу на роздачу !
ratbol 
Модератор HD


З нами з: 03.02.09
Востаннє: 13.08.17
Повідомлень: 1083

2012-06-03 12:13  
Чому не кодував? Ріп слабенький.
braveboy 
Відео Гуртом - команда HD
Відео Гуртом - команда HD


З нами з: 15.06.10
Востаннє: 13.08.17
Повідомлень: 949

2012-06-03 16:32  
ratbol написано:
Чому не кодував? Ріп слабенький.

1080р не кодую

leroykendall 
Модератор HD


З нами з: 03.01.11
Востаннє: 04.08.17
Повідомлень: 750

2012-06-14 00:00  
Цікава ідея написано:
У 720р релізі звук кращий та зроблено більше шумів.

braveboy В цьому релізі звук з SD чи з 720p релізу?

braveboy 
Відео Гуртом - команда HD
Відео Гуртом - команда HD


З нами з: 15.06.10
Востаннє: 13.08.17
Повідомлень: 949

2012-06-14 00:03  
leroykendall написано:
braveboy В цьому релізі звук з SD чи з 720p релізу?

звук брав звідси http://dorizhky.hurtom.com/ а взагалі то в тих релізах звук однаковий

OverStreet 
Новенький


З нами з: 27.12.11
Востаннє: 26.05.17
Повідомлень: 2

2012-06-20 23:52  
Звук в 720р краще аніж в SD. Там є деякі шуми, та взагалі він краще зведений. А в SD багато бліх.
leroykendall 
Модератор HD


З нами з: 03.01.11
Востаннє: 04.08.17
Повідомлень: 750

2012-06-21 03:40  
OverStreet
Так. Виходить, що в 720p звук таки кращий ніж тут в 1080p. Дякую.

braveboy 
Відео Гуртом - команда HD
Відео Гуртом - команда HD


З нами з: 15.06.10
Востаннє: 13.08.17
Повідомлень: 949

2012-06-21 03:46  
leroykendall написано:

OverStreet
Так. Виходить, що в 720p звук таки кращий ніж тут в 1080p. Дякую.


доріжки однакові

leroykendall 
Модератор HD


З нами з: 03.01.11
Востаннє: 04.08.17
Повідомлень: 750

2012-06-21 03:55  
braveboy
Автор доріжок Цікава Ідея пише що не однакові: https://toloka.to/t35891-30#455758 То як вони можуть бути однакові?

Ваш часовий пояс: GMT + 2 Години

Нова тема   Відповісти