Труп нареченої / Corpse Bride (2005) 720p Ukr/Eng | Sub Eng

Нові коментарі

Нова тема   Відповісти
Автор Повідомлення
braveboy 
Відео Гуртом - команда HD
Відео Гуртом - команда HD


З нами з: 15.06.10
Востаннє: 13.08.17
Повідомлень: 949

2012-05-31 06:36  

Труп нареченої / Corpse Bride (2005) 720p Ukr/Eng | Sub Eng


Труп нареченої / Corpse Bride (2005) 720p Ukr/Eng | Sub Eng

«Помилка виявилася смертельною.»

Жанр: фентезі, комедія, мелодрама
Країна: США



Кіностудія / кінокомпанія: Warner Brothers Tim Burton Animation Co., Laika Entertainment, Will Vinton Studios
Режисер: Тім Бартон, Майк Джонсон
Актори: Джонні Депп, Гелена Бонем Картер, Эмілі Вотсон, Альберт Фінні, Джоанна Ламлі, Крістофер Лі
Касові збори

У США стрічка отримала $53,359,111, за кордоном - $63,835,950 (усього - $117,195,061)
Сюжет:
Дія відбувається у європейській провінції часів вікторіанської епохи. У похмурому місті родини Ван Дортів та Еверґлотів готують весілля своїх нащадків — Віктора та Вікторії. Задум взаємовигідний: збіднілі аристократи Еверґлоти врятуються від ганебної вбогості, а торговці рибою Ван Дорти увійдуть до вищого суспільства. Самі наречені, не схожі на своїх батьків, окасті й затуркані Віктор та Вікторія, в тій ситуації нікого не цікавлять. Вони знайомляться на репетиції весілля й, на щастя, подобаються одне одному. Але репетиція не вдається — Віктор плутає слова, підпалює майбутню тещу і, щоб не отримати на горіхи від зловісного пастора, втікає в лісок. ...



Тривалість: 01:17:11
Якість: 720p
Відео:
кодек:
розмір кадру: 1280 x 720
бітрейт: 5052 кб/с

Аудіо # 1:
мова: українська
переклад: багатоголосий закадровий
кодек: 2.0
бітрейт: 256 кб/с

Аудіо # 2:
мова: англійська
переклад: оригінал
кодек: 5.1
бітрейт: 640 кб/с

Джерело озвучення:
озвучено «Так Треба Продакшн» на замовлення телекомпанії

Субтитри:
мова: англійська
тип: програмні (м'які)
формат: *.srt
log

[info]: frame I:1093 Avg QP:12.52 size:117717
[info]: frame P:26181 Avg QP:14.16 size: 50049
[info]: frame B:83774 Avg QP:15.04 size: 17693
[info]: consecutive B-frames: 2.8% 2.8% 8.8% 32.4% 20.0% 25.3% 8.0%
[info]: mb I I16..4: 5.2% 77.1% 17.7%
[info]: mb P I16..4: 1.1% 14.8% 2.3% P16..4: 32.7% 22.6% 16.4% 1.5% 0.5% skip: 8.0%
[info]: mb B I16..4: 0.1% 1.5% 0.3% B16..8: 30.7% 18.0% 5.9% direct: 6.6% skip:36.9% L0:44.4% L1:42.4% BI:13.1%
[info]: 8x8 transform intra:79.9% inter:41.3%
[info]: coded y,uvDC,uvAC intra: 89.2% 84.9% 74.2% inter: 28.6% 23.0% 13.0%
[info]: i16 v,h,dc,p: 43% 11% 10% 37%
[info]: i8 v,h,dc,ddl,ddr,vr,hd,vl,hu: 14% 10% 15% 8% 10% 11% 10% 11% 12%
[info]: i4 v,h,dc,ddl,ddr,vr,hd,vl,hu: 11% 7% 6% 10% 16% 15% 13% 11% 12%
[info]: i8c dc,h,v,p: 51% 20% 18% 12%
[info]: Weighted P-Frames: Y:6.5% UV:3.3%
[info]: ref P L0: 47.2% 6.9% 19.0% 7.4% 6.5% 4.9% 4.7% 3.0% 0.5% 0.0%
[info]: ref B L0: 69.0% 14.2% 6.9% 4.1% 3.1% 1.8% 0.8%
[info]: ref B L1: 91.4% 8.6%
Info
General
Unique ID : 239203648927088066307788818042608048380 (0xB3F4F270658C167D8D6A1055283E58FC)
Complete name : E:\Temp\Corpse Bride (2005) [Ukr,Eng Sub Eng] 720p [HURTOM] by braveboy.
Format :
Format version : Version 2
File size : 3.20 GiB
Duration : 1h 17mn
Overall bit rate : 5 943 Kbps
Movie name : Corpse Bride (2005) 720p by braveboy
Encoded date : UTC 2012-05-31 02:56:24
Writing application : mkvmerge v5.6.0 ('Kenya Kane') built on May 27 2012 16:44:04
Writing library : libebml v1.2.3 + libmatroska v1.3.0

Video
ID : 1
Format : AVC
Format/Info : Advanced Video Codec
Format profile : [email protected]
Format settings, CABAC : Yes
Format settings, ReFrames : 8 frames
Codec ID : V_MPEG4/ISO/AVC
Duration : 1h 17mn
Bit rate : 5 052 Kbps
Width : 1 280 pixels
Height : 720 pixels
Display aspect ratio : 16:9
Frame rate : 23.976 fps
Color space : YUV
Chroma subsampling : 4:2:0
Bit depth : 8 bits
Scan type : Progressive
Bits/(Pixel*Frame) : 0.229
Stream size : 2.66 GiB (83%)
Title : Corpse Bride (2005) 720p by braveboy
Writing library : core 125 r2200 999b753
Encoding settings : cabac=1 / ref=8 / deblock=1:-3:-3 / analyse=0x3:0x133 / me=umh / subme=10 / psy=1 / psy_rd=0.80:0.00 / mixed_ref=1 / me_range=32 / chroma_me=1 / trellis=2 / 8x8dct=1 / cqm=0 / deadzone=21,11 / fast_pskip=0 / chroma_qp_offset=-2 / threads=3 / lookahead_threads=1 / sliced_threads=0 / nr=0 / decimate=0 / interlaced=0 / bluray_compat=0 / constrained_intra=0 / bframes=6 / b_pyramid=2 / b_adapt=2 / b_bias=0 / direct=1 / weightb=1 / open_gop=0 / weightp=2 / keyint=240 / keyint_min=24 / scenecut=40 / intra_refresh=0 / rc=2pass / mbtree=0 / bitrate=5052 / ratetol=1.0 / qcomp=0.60 / qpmin=10 / qpmax=51 / qpstep=4 / cplxblur=20.0 / qblur=0.5 / ip_ratio=1.40 / pb_ratio=1.30 / aq=1:1.00
Default : Yes
Forced : No

Audio #1
ID : 2
Format : AC-3
Format/Info : Audio Coding 3
Mode extension : CM (complete main)
Format settings, Endianness : Big
Codec ID : A_AC3
Duration : 1h 17mn
Bit rate mode : Constant
Bit rate : 256 Kbps
Channel(s) : 2 channels
Channel positions : Front: L R
Sampling rate : 48.0 KHz
Bit depth : 16 bits
Compression mode : Lossy
Stream size : 141 MiB (4%)
Title : 2.0 - 256 kbps
Language : Ukrainian
Default : Yes
Forced : No

Audio #2
ID : 3
Format : AC-3
Format/Info : Audio Coding 3
Mode extension : CM (complete main)
Format settings, Endianness : Big
Codec ID : A_AC3
Duration : 1h 17mn
Bit rate mode : Constant
Bit rate : 640 Kbps
Channel(s) : 6 channels
Channel positions : Front: L C R, Side: L R, LFE
Sampling rate : 48.0 KHz
Bit depth : 16 bits
Compression mode : Lossy
Stream size : 353 MiB (11%)
Title : 5.1 - 640 kbps
Language : English
Default : No
Forced : No

Text
ID : 4
Format : UTF-8
Codec ID : S_TEXT/UTF8
Codec ID/Info : UTF-8 Plain Text
Title : Full
Language : English
Default : No
Forced : No

Menu
00:00:00.000 : en:00:00:00.000
00:02:21.308 : en:00:02:21.308
00:06:29.389 : en:00:06:29.389
00:10:46.145 : en:00:10:46.145
00:14:31.204 : en:00:14:31.204
00:18:53.966 : en:00:18:53.966
00:20:32.731 : en:00:20:32.731
00:23:58.771 : en:00:23:58.771
00:27:20.806 : en:00:27:20.806
00:30:27.659 : en:00:30:27.659
00:33:22.167 : en:00:33:22.167
00:36:17.509 : en:00:36:17.509
00:39:53.391 : en:00:39:53.391
00:43:21.098 : en:00:43:21.098
00:46:19.944 : en:00:46:19.944
00:48:54.598 : en:00:48:54.598
00:52:02.953 : en:00:52:02.953
00:54:50.454 : en:00:54:50.454
00:56:57.080 : en:00:56:57.080
01:00:15.445 : en:01:00:15.445
01:03:45.488 : en:01:03:45.488
01:07:41.057 : en:01:07:41.057
01:11:12.101 : en:01:11:12.101
01:13:26.402 : en:01:13:26.402
Порівняльні скріншоти
Source vs Encode





Скріншоти





720p by braveboy
Цитата:

* Source: Corpse Bride (2005) Blu-ray 1080p VC-1 [USA]

* Збережено оригінальні чаптери як на Blu-Ray


Особиста оцінка: 10 - без зайвих вагань рекомендую всім!


 Трекер:    Зареєстрований   

Завантажити / скачати мультфільм українською



відео для новачків



 Зареєстрований:   2012-05-31 06:37
 Розмір:   3.2 GB 
 Оцінка мультфільму:   9.7/10 (Голосів: 38)
   
Інші релізи
   Труп нареченої / Corpse Bride (2005) 1080p Ukr/Eng | Sub Eng staf777  4 / 0   7.39 GB   2017-02-23 10:45 
   Труп нареченої / Corpse Bride (2005) Ukr/Eng | Sub Eng karvai0  4 / 0   1.45 GB   2015-02-07 12:49 
cyberprostir 
Свій


З нами з: 15.11.09
Востаннє: 11.08.17
Повідомлень: 108

2013-11-02 20:21  
Клас, у мультику згадуються "Ukrainian haunting spell" - українські замовляння.
BGD-2012 
Свій


З нами з: 06.05.12
Востаннє: 05.08.17
Повідомлень: 77

2015-12-12 21:36  
Неочікуваний сюжет та ідея. Дякую!
burjuis 
Новенький


З нами з: 22.11.15
Востаннє: 05.06.16
Повідомлень: 3

2016-03-13 12:16  
дякую, а коли буде в 1080р?
Хлоя Прайс 
Свій


З нами з: 16.07.16
Востаннє: 11.08.17
Повідомлень: 52

2016-12-20 17:41  
Чому рідко бувають мультфільми в 1080 p?
igor911 
Відео Гуртом
Відео Гуртом


З нами з: 18.01.08
Востаннє: 19.08.17
Повідомлень: 7281

2016-12-20 17:46  
Хлоя Прайс написано:
Рейтинг: 0.03

бо ніхто не хоче їх підтримувати.

Додано через 1 хвилину 30 секунд:

Хлоя Прайс написано:
(в мережі)
Активні торренти
Роздає немає

Ваш часовий пояс: GMT + 2 Години

Нова тема   Відповісти