Усі собаки потрапляють до раю / All Dogs Go to Heaven (1989) 1080p Ukr/Eng | Sub Ukr/Eng

Нові коментарі

Нова тема   Відповісти
Автор Повідомлення
ratbol 
Модератор HD


З нами з: 03.02.09
Востаннє: 13.08.17
Повідомлень: 1083

2012-05-24 12:52  
Усі собаки потрапляють до раю / All Dogs Go to Heaven (1989) 1080p Ukr/Eng | Sub Ukr/Eng


« But not all dogs stay there! »


Жанр: анімація, пригодницький
Країна: Ірландія, Великобританія, США



Кіностудія / кінокомпанія: MGM
Режисер: Дон Блат (Don Bluth), Гарі Голдман (Gary Goldman), Ден Куенстер (Dan Kuenster)
Актори: Берт Рейнолдс (Burt Reynolds), Дом ДеЛуіс (Dom DeLuise), Джудіт Барс (Judith Barsi), Мелба Мур (Melba Moore), Деріл Гіллі (Daryl Gilley), Кенді Дівайн (Candy Devine), Чарльз Нельсон Рейлі (Charles Nelson Reilly)

Сюжет:
Пес на ім'я Чарлі Баркін, що займався азартними іграми, гине від лап пітбуля Бульдозера і опиняється в раю — просто тому, що всі пси обов'язково потрапляють в рай. Проте Чарлі так хоче розрахуватися зі своїм убивцею, що повертається на Землю. Разом зі своїм вірним другом Чесуном, Чарлі розкриває головний секрет успіху Бульдозера. Бульдозер використовує незвичайні здібності маленької дівчинки-сироти на ім'я Анні-Марі, яка вміє розмовляти з тваринами і вгадує результати щурячих перегонів і кінських скачок. Чарлі викрадає дівчинку, і вони стають кращими друзями.


Тривалість: 01:24:34
Якість:
Відео:
кодек:
розмір кадру: 1920 х 1 040
бітрейт: 20.9 Мбіт/с

Аудіо # 1:
мова: українська
переклад: двоголосий закадровий, 1+1
кодек: 5.1
бітрейт: 384 Кбіт/с

Аудіо # 2:
мова: англійська
переклад: оригінал
кодек: 2.0
бітрейт: 1536 Кбіт/с

Субтитри # 1:
мова: українська
тип: програмні (м'які)
формат: *.srt

Субтитри # 2:
мова: англійська
тип: програмні (м'які)
формат: *.ass

Info
Код:
General
Unique ID                        : 175317904342740593638685943406176775154 (0x83E5000B8A4D4666BF131BBFF5082BF2)
Complete name                    : \\mediaserver\D\CARTOONS [UKR]\All Dogs Go to Heaven (1989) [Ukr, Eng] [Sub - Ukr, Eng] 1080p [Hurtom].
Format                           :
Format version                   : Version 2
File size                        : 13.7 GiB
Duration                         : 1h 24mn
Overall bit rate                 : 23.2 Mbps
Movie name                       : All Dogs Go to Heaven (1989)
Encoded date                     : UTC 2012-05-24 09:03:11
Writing application              : mkvmerge v5.4.0 ('Piper') built on Mar 10 2012 13:34:39
Writing library                  : libebml v1.2.3 + libmatroska v1.3.0
Attachment                       : Yes / Yes

Video
ID                               : 1
Format                           : AVC
Format/Info                      : Advanced Video Codec
Format profile                   : [email protected]
Format settings, CABAC           : Yes
Format settings, ReFrames        : 4 frames
Codec ID                         : V_MPEG4/ISO/AVC
Duration                         : 1h 24mn
Bit rate                         : 20.9 Mbps
Width                            : 1 920 pixels
Height                           : 1 040 pixels
Display aspect ratio             : 16:9
Frame rate                       : 23.976 fps
Color space                      : YUV
Chroma subsampling               : 4:2:0
Bit depth                        : 8 bits
Scan type                        : Progressive
Bits/(Pixel*Frame)               : 0.436
Stream size                      : 12.3 GiB (90%)
Writing library                  : core 124 r2197kMod 69a0443
Encoding settings                : cabac=1 / ref=4 / deblock=1:-3:-3 / analyse=0x3:0x113 / me=umh / subme=11 / psy=1 / fade_compensate=0.00 / psy_rd=1.00:0.00 / mixed_ref=1 / me_range=48 / chroma_me=1 / trellis=2 / 8x8dct=1 / cqm=0 / deadzone=21,11 / fast_pskip=1 / chroma_qp_offset=-2 / threads=12 / sliced_threads=0 / nr=0 / decimate=1 / interlaced=0 / bluray_compat=0 / constrained_intra=0 / bframes=8 / b_pyramid=2 / b_adapt=2 / b_bias=0 / direct=1 / weightb=1 / open_gop=0 / weightp=2 / keyint=250 / keyint_min=23 / scenecut=40 / intra_refresh=0 / rc_lookahead=60 / rc=crf / mbtree=1 / crf=21.0000 / qcomp=0.80 / qpmin=0 / qpmax=69 / qpstep=4 / vbv_maxrate=50000 / vbv_bufsize=62500 / crf_max=0.0 / nal_hrd=none / ip_ratio=1.10 / aq=2:0.65
Language                         : English
Default                          : Yes
Forced                           : No
Matrix coefficients              : BT.709-5, BT.1361, IEC 61966-2-4 709, SMPTE RP177

Audio #1
ID                               : 2
Format                           : AC-3
Format/Info                      : Audio Coding 3
Mode extension                   : CM (complete main)
Codec ID                         : A_AC3
Duration                         : 1h 24mn
Bit rate mode                    : Constant
Bit rate                         : 384 Kbps
Channel(s)                       : 6 channels
Channel positions                : Front: L C R, Side: L R, LFE
Sampling rate                    : 48.0 KHz
Bit depth                        : 16 bits
Compression mode                 : Lossy
Stream size                      : 232 MiB (2%)
Title                            : 5.1 [384 Kbps] — Двоголосий закадровий, 1+1
Language                         : Ukrainian
Default                          : Yes
Forced                           : No

Audio #2
ID                               : 3
Format                           :
Format/Info                      : Digital Theater Systems
Codec ID                         : A_DTS
Duration                         : 1h 24mn
Bit rate mode                    : Constant
Bit rate                         : 1 510 Kbps
Channel(s)                       : 2 channels
Channel positions                : Front: L R
Sampling rate                    : 48.0 KHz
Bit depth                        : 24 bits
Compression mode                 : Lossy
Stream size                      : 913 MiB (7%)
Title                            : 2.0 [1536 Kbps] — оригінал
Language                         : English
Default                          : No
Forced                           : No

Text #1
ID                               : 4
Format                           : UTF-8
Codec ID                         : S_TEXT/UTF8
Codec ID/Info                    : UTF-8 Plain Text
Language                         : Ukrainian
Default                          : No
Forced                           : No

Text #2
ID                               : 5
Format                           : ASS
Codec ID                         : S_TEXT/ASS
Codec ID/Info                    : Advanced Sub Station Alpha
Compression mode                 : Lossless
Language                         : English
Default                          : No
Forced                           : No

Menu
00:00:00.000                     : en:Logos/"Rat Race"
00:05:11.228                     : en:You Can't Keep a Good Dog Down
00:08:32.846                     : en:Carface & Charlie
00:14:18.191                     : en:Let Me Be Surprised
00:19:32.296                     : en:"I'm Not a Ghost!"
00:23:40.586                     : en:Saving Anne-Marie
00:28:51.605                     : en:Bedtime Story
00:37:51.978                     : en:"Grand Chawhee to Win"
00:40:42.649                     : en:"Jackpot!"
00:43:56.551                     : en:What's Mine Is Yours
00:49:24.753                     : en:Soon You'll Come Home
00:54:36.315                     : en:"Don't Worry About Me"
00:57:36.119                     : en:Let's Make Music Together
01:03:05.532                     : en:"Bad Dog!"
01:08:47.623                     : en:To the Rescue
01:14:00.353                     : en:Heavenly Dog/Credits
log

Код:
y4m [info]: 1920x1040p 1:1 @ 24000/1001 fps (cfr)
[info]: using SAR=1/1
[info]: using cpu capabilities: MMX2 SSE2Fast SSSE3 FastShuffle SSE4.2 AVX
[info]: profile High, level 4.1
[info]: frame I:614   Avg QP:21.27  size:177707
[info]: frame P:25109 Avg QP:21.89  size:124773
[info]: frame B:95955 Avg QP:22.40  size:107169
[info]: consecutive B-frames:  1.2%  1.6%  9.1% 13.5% 17.6% 49.5%  3.8%  2.1%  1.6%
[info]: mb I  I16..4:  1.2% 92.5%  6.4%
[info]: mb P  I16..4:  0.3% 27.5%  1.2%  P16..4: 26.0% 34.7%  9.3%  0.0%  0.0%    skip: 1.1%
[info]: mb B  I16..4:  0.0% 12.7%  0.2%  B16..8: 39.7% 23.3%  5.1%  direct:15.2%  skip: 3.7%  L0:43.6% L1:42.6% BI:13.8%
[info]: 8x8 transform intra:96.7% inter:58.2%
[info]: coded y,uvDC,uvAC intra: 99.1% 77.8% 27.5% inter: 82.8% 61.4% 1.2%
[info]: i16 v,h,dc,p: 50% 18%  6% 26%
[info]: i8 v,h,dc,ddl,ddr,vr,hd,vl,hu:  6%  5%  8% 13% 16% 14% 12% 13% 13%
[info]: i4 v,h,dc,ddl,ddr,vr,hd,vl,hu:  6%  5%  3% 11% 18% 17% 15% 13% 14%
[info]: i8c dc,h,v,p: 31% 28% 21% 20%
[info]: Weighted P-Frames: Y:14.4% UV:4.4%
[info]: ref P L0: 40.2% 11.1% 26.0% 18.4%  4.1%  0.1%
[info]: ref B L0: 76.3% 18.4%  5.3%
[info]: ref B L1: 86.3% 13.7%
[info]: kb/s:21320.95

encoded 121678 frames, 2.93 fps, 21320.95 kb/s
[info]: ended at Thu May 24 05:01:31 2012





Подяка urij546724 за синхронізацію української доріжки та субтитри,
xslim — запис звуку, Skazhutin (HDClub) — відеоріп, karvai0 — українізований постер



Джерело: &


Срібний реліз (на рейтинг впливає 50% завантаженого)
 Трекер:    Зареєстрований   

Завантажити / скачати мультфільм українською



відео для новачків



 Зареєстрований:   2012-05-24 12:52
 Розмір:   13.72 GB 
 Оцінка мультфільму:   10/10 (Голосів: 9)
   
braveboy 
Відео Гуртом - команда HD
Відео Гуртом - команда HD


З нами з: 15.06.10
Востаннє: 13.08.17
Повідомлень: 949

2012-05-24 16:25  
ratbol

x264log чому не додав

ratbol 
Модератор HD


З нами з: 03.02.09
Востаннє: 13.08.17
Повідомлень: 1083

2012-05-24 17:47  
braveboy
Вговорив.

Hentaihunter 
VIP


З нами з: 16.08.08
Востаннє: 17.08.17
Повідомлень: 2362

2012-05-24 18:17  
А чому оригінал 5.1 з R5 не додав?
ratbol 
Модератор HD


З нами з: 03.02.09
Востаннє: 13.08.17
Повідомлень: 1083

2012-05-24 18:23  
Hentaihunter
Бо там 384 Кбіт, а тут 1536

Hentaihunter 
VIP


З нами з: 16.08.08
Востаннє: 17.08.17
Повідомлень: 2362

2012-05-24 18:29  
Дякую, кепе, але на DVD оригінал 5.1, про що я зазначив у своєму дописі, а на blu-ray 2.0. Просто при наявності лише самого незрозуміле походження української шестиканальної доріжки.
ratbol 
Модератор HD


З нами з: 03.02.09
Востаннє: 13.08.17
Повідомлень: 1083

2012-05-24 18:36  
Hentaihunter
Я вам про бітрейт і кодек пишу, а не про кількість каналів.
Походження — дурниці, а дтс 1536 однозначно якісніший ніж долбі 384.

Віктор 
Відео Гуртом - субтитрування
Відео Гуртом - субтитрування


З нами з: 09.01.10
Востаннє: 11.08.17
Повідомлень: 8686

2014-10-05 19:51  
У 720p обидві ніхто не бажає викласти? http://www.blu-ray.com/movies/All-Dogs-Go-To-Heaven-1-and-2-Blu-ray/110875/
Ваш часовий пояс: GMT + 2 Години

Нова тема   Відповісти