Льодовиковий період 2: Глобальне потепління / Ice Age 2: The Meltdown (2006) [480x272]

Нові коментарі

Нова тема   Відповісти
Останній раз роздавалося greece1 (2021-01-13)
Автор Повідомлення
Anonymous 







2012-05-14 12:54  
Льодовиковий період 2: Глобальне потепління / Ice Age 2: The Meltdown (2006) [480x272]



Жанр: анімація, комедія, сімейний
Країна: США



Кіностудія / кінокомпанія: 20th Century Fox
Режисер: Карлос Салдана (Carlos Saldanha)
Сюжет:
Льодовиковий період закінчився, і долині, де живуть Менні, Діего та Сід загрожує повінь. Їм необхідно буде об'єднатися, щоб попередити про небезпеку інших жителів.


Тривалість: 01:30:36
Якість: власний ріп з BD-Remux
Відео:
кодек:
розмір кадру: 480 х 272
бітрейт: 572 кб/с

Аудіо:
мова: українська
переклад: професійний дубльований
кодек: 2.0
бітрейт: 128 кб/с

Джерело озвучення:
ТО "Цікава ідея" на замовлення Hurtom.com в рамках проекту Хочеш кіно українською? Замовляй!
Info
Complete name : Ice Age 2 The Meltdown (2006) [ukr] mobile [Hurtom].mp4
Format : MPEG-4
Format profile : Base Media
Codec ID : isom
File size : 456 MiB
Duration : 1h 30mn
Overall bit rate mode : Variable
Overall bit rate : 704 Kbps
Movie name : Льодовиковий період 2: Глобальне потепління / Ice Age 2: The Meltdown (2006)
Performer : Цікава ідея/www.hurtom.com
Encoded date : UTC 2012-05-14 10:05:02
Tagged date : UTC 2012-05-14 10:05:02

Video
ID : 1
Format : AVC
Format/Info : Advanced Video Codec
Format profile : [email protected]
Format settings, CABAC : Yes
Format settings, ReFrames : 3 frames
Codec ID : avc1
Codec ID/Info : Advanced Video Coding
Duration : 1h 30mn
Bit rate mode : Variable
Bit rate : 572 Kbps
Maximum bit rate : 10 000 Kbps
Width : 480 pixels
Height : 272 pixels
Display aspect ratio : 16:9
Frame rate mode : Constant
Frame rate : 23.976 fps
Color space : YUV
Chroma subsampling : 4:2:0
Bit depth : 8 bits
Scan type : Progressive
Bits/(Pixel*Frame) : 0.183
Stream size : 371 MiB (81%)
Title : 2_Ice Age 2 The Meltdown (2006) [ukr] mobile [Hurtom]
Writing library : core 124 r2197 69a0443
Encoding settings : cabac=1 / ref=3 / deblock=1:0:0 / analyse=0x1:0x111 / me=hex / subme=7 / psy=1 / psy_rd=1.00:0.00 / mixed_ref=1 / me_range=16 / chroma_me=1 / trellis=1 / 8x8dct=0 / cqm=0 / deadzone=21,11 / fast_pskip=1 / chroma_qp_offset=-2 / threads=12 / sliced_threads=0 / nr=0 / decimate=1 / interlaced=0 / bluray_compat=0 / constrained_intra=0 / bframes=3 / b_pyramid=0 / b_adapt=1 / b_bias=0 / direct=1 / weightb=1 / open_gop=0 / weightp=2 / keyint=240 / keyint_min=24 / scenecut=40 / intra_refresh=0 / rc_lookahead=40 / rc=crf / mbtree=1 / crf=20.0 / qcomp=0.60 / qpmin=0 / qpmax=69 / qpstep=4 / vbv_maxrate=10000 / vbv_bufsize=10000 / crf_max=0.0 / nal_hrd=vbr / ip_ratio=1.40 / aq=1:1.00
Encoded date : UTC 2012-05-14 10:05:02
Tagged date : UTC 2012-05-14 10:05:11

Audio
ID : 2
Format :
Format/Info : Advanced Audio Codec
Format profile : LC
Codec ID : 40
Duration : 1h 30mn
Bit rate mode : Variable
Bit rate : 128 Kbps
Maximum bit rate : 134 Kbps
Channel(s) : 2 channels
Channel positions : Front: L R
Sampling rate : 48.0 KHz
Compression mode : Lossy
Stream size : 82.9 MiB (18%)
Language : Ukrainian
Encoded date : UTC 2012-05-14 10:05:09
Tagged date : UTC 2012-05-14 10:05:11
Скріншоти







Відео створено для:
Apple iOS: iPhone, iPod, iPad
Android
Windows Phone
Nokia Symbian
Sony PSP, PS3
XBOX 360



Велика подяка за український постер Gelios.


Авторський реліз (завантажувати можна без реєстрації)
 Трекер:    Зареєстрований   

Завантажити / скачати торрент



відео для новачків



 Зареєстрований:   2012-05-14 12:54
 Розмір:   456 MB 
 Оцінка:   6.7/10 (Голосів: 30)
   
vovo619 
VIP


З нами з: 16.02.11
Востаннє: 29.10.15
Повідомлень: 309

2012-05-14 15:01  
коли буде для мобільного телефону?Happy а то на мій s5230 навряд влізеSad (1)
fooks 
Поважний учасник


З нами з: 17.10.11
Востаннє: 20.12.20
Повідомлень: 240

2012-05-14 15:18  
vovo619 , спитайся пана Konfucius чим конвертував, і конвертуй собі в то шо треба, бо на толоці під мобілки не роблять((!
vovo619 
VIP


З нами з: 16.02.11
Востаннє: 29.10.15
Повідомлень: 309

2012-05-14 15:47  
якраз там і роблятьHappy я бачив де кілька фільмів тай в оголошенні, ну те що зліва на сайті написано про формат для телефону
fooks 
Поважний учасник


З нами з: 17.10.11
Востаннє: 20.12.20
Повідомлень: 240

2012-05-14 15:56  
Цитата:
якраз там і роблять

та то де???

Додано через 29 секунд:

скажи який має бути розмір я тобі зроблю...

Anonymous 







2012-05-14 16:00  
котче - для комунікаторів і смартфонів (хоча для них і стандартне на 1.45 піде)
vovo619 
VIP


З нами з: 16.02.11
Востаннє: 29.10.15
Повідомлень: 309

2012-05-14 16:13  
та мені як для телефону 240х320:)
fooks 
Поважний учасник


З нами з: 17.10.11
Востаннє: 20.12.20
Повідомлень: 240

2012-05-14 17:02  
Цитата:
та мені як для телефону 240х320:)

3gp???

tyma1 
VIP


З нами з: 27.11.09
Востаннє: 15.01.21
Повідомлень: 696

2012-05-15 06:56  
vovo619 написано:
та мені як для телефону 240х320:)

В мене самого 240х320, і я користуюся Total Video Converter HD.

fooks 
Поважний учасник


З нами з: 17.10.11
Востаннє: 20.12.20
Повідомлень: 240

2012-05-15 16:13  
Цитата:
Total Video Converter HD.

фігня!

Pegass 
VIP


З нами з: 17.12.09
Востаннє: 15.01.21
Повідомлень: 1137

2013-03-09 20:46  
Хто знає яка якість відео і т. д. потрібно для Samsung GT-C6712 Star II Duos???
Кактусс 
Новенький


З нами з: 01.08.11
Востаннє: 05.01.21
Повідомлень: 1

2015-09-13 18:02  
Хочу завантажити для дітей, а не виходить. Пише під"єднання до пірів 0%.
Gutik550 
VIP


З нами з: 05.01.12
Востаннє: 15.01.21
Повідомлень: 817

2015-09-14 10:29  
Кактусс написано:
Хочу завантажити для дітей, а не виходить. Пише під"єднання до пірів 0%.

Просто останній раз роздавалось 7.09.15. Можу вам порадити таке, якщо у вас є андроїд телефон чи планшет можете на нього завантажити програму FS VideoBox https://toloka.to/t64495 через неї можна дивитись онлайн або вантажити оптимізовані файли для перегляду на планшеті телефоні, якщо вони звісно є на сайті.

Ваш часовий пояс: GMT + 2 Години

Нова тема   Відповісти