Льодовиковий період: Трилогія / Ice Age: Trilogy (2002-2009) 720p Ukr/Eng | Sub Ukr/Eng + Bonus

Нові коментарі

Нова тема   Відповісти
Автор Повідомлення
DiGen 
Модератор HD та координатор Команди HD
Модератор HD та координатор Команди HD


З нами з: 12.11.09
Востаннє: 24.06.13
Повідомлень: 1451

2012-05-14 04:52  
Льодовиковий період: Трилогія / Ice Age: Trilogy (2002-2009) 720p Ukr/Eng | Sub Ukr/Eng + Bonus

Льодовиковий період / Ice Age (2002) 720p Ukr/Eng | Sub Eng
Льодовиковий період / Ice Age (2002) 720p Ukr/Eng | Sub Eng



Жанр: анімація, дитячий, пригодницький
Країна: США



Кіностудія / кінокомпанія: 20th Century Fox, Blue Sky Studios
Режисер: Карлос Салдана (Carlos Saldanha), Кріс Уедж (Chris Wedge, Скрет
Актори: Рей Романо (Ray Romano, Менні), Джек Блек, Джон Легуізамо (John Leguizamo, Сід), Деніс Лірі (Denis Leary, Дієго), Горан Вішніч, Стівен Рут, Дідріх Бадер, Алан Т'юдік, Лоррі Беглі, Седрік «Розважальник»

Сюжет:
20 тис. років назад. Щоб уникнути холоду від настання льодовикового періоду , тварини мігрують на південь. Проте деякі з них все-таки вирішують залишитися — самотній, похмурий мамонт Манфред, а також відчайдушний лінивець Сід.
Випадково ця парочка натрапляє на людське дитинча. Вони наважуються повернути його людям і вирушають в подорож. По дорозі вони зустрічають шаблезубого хитрого тигра. І тепер цю дивну компанію чекають веселі та небезпечні пригоди!


Тривалість: 01:21:04
Якість:
Відео:
кодек: x.264
розмір кадру: 1280 х 688
бітрейт: 6463 кб/с

Аудіо #1:
мова: українська
переклад: професійний дубльований
кодек: 2.0
бітрейт: 384 кб/с

Аудіо #2:
мова: англійська
переклад: оригінал
кодек: 5.1
бітрейт: 640 кб/с

Аудіо #3:
мова: англійська
переклад: оригінал (коментарі)
кодек: 2.0
бітрейт: 224 кб/с

Переклад виконано і озвучено:


Субтитри 1:
мова: англійська
тип: програмні (м'які)
формат: *.srt
x.264 log:

-[Information] Log for job76 (video, Ice.Age.2002.avs -> )
--[Information] [18.05.2012 14:00:05] Started handling job
--[Information] [18.05.2012 14:00:05] Preprocessing
--[Information] [18.05.2012 14:00:05] Avisynth input script
---[NoImage] LoadPlugin("C:\Program Files\MeGUI_2112_x86\tools\dgavcindex\DGAVCDecode.dll")
---[NoImage] AVCSource("D:\Films\robota\Ice.Age.2002.Blu-ray.EUR.1080p.AVC\Ice.Age.2002.dga")
---[NoImage] #deinterlace
---[NoImage] crop( 0, 20, 0, -20)
---[NoImage] LanczosResize(1280,688) # Lanczos (Sharp)
---[NoImage] #denoise
--[Information] [18.05.2012 14:00:08] Job commandline: "C:\Program Files\MeGUI_2112_x86\tools\\.exe" --level 4.1 --pass 1 --bitrate 6463 --stats "D:\Films\robota\ICE_AGE_2\122.stats" --keyint 240 --bframes 9 --b-adapt 2 --ref 5 --merange 24 --me umh --subme 11 --trellis 2 --sar 1:1 --output NUL "D:\Films\robota\Ice.Age.2002.Blu-ray.EUR.1080p.AVC\Ice.Age.2002.avs"
--[Information] [18.05.2012 14:00:08] Encoding started
--[Information] [18.05.2012 15:39:49] Standard output stream
--[Information] [18.05.2012 15:39:49] Standard error stream
---[NoImage] avs [info]: 1280x688p 1:1 @ 24000/1001 fps (cfr)
---[NoImage] [info]: using SAR=1/1
---[NoImage] [info]: using cpu capabilities: MMX2 SSE2Fast SSSE3 FastShuffle SSE4.2 AVX
---[NoImage] [info]: profile Main, level 4.1
---[NoImage]
---[NoImage] [info]: frame I:1183 Avg QP: 7.38 size:204601
---[NoImage] [info]: frame P:27854 Avg QP:10.79 size: 64967
---[NoImage] [info]: frame B:87724 Avg QP:14.18 size: 20589
---[NoImage] [info]: consecutive B-frames: 3.3% 3.7% 7.4% 36.5% 13.7% 24.1% 4.2% 4.3% 1.7% 1.3%
---[NoImage] [info]: mb I I16..4: 25.5% 0.0% 74.5%
---[NoImage] [info]: mb P I16..4: 25.1% 0.0% 0.0% P16..4: 59.9% 0.0% 0.0% 0.0% 0.0% skip:15.0%
---[NoImage] [info]: mb B I16..4: 6.9% 0.0% 0.0% B16..8: 29.3% 0.0% 0.0% direct:19.5% skip:44.3% L0:30.5% L1:36.1% BI:33.4%
---[NoImage] [info]: final ratefactor: 12.53
---[NoImage] [info]: coded y,uvDC,uvAC intra: 82.2% 75.4% 56.2% inter: 33.2% 20.5% 6.0%
---[NoImage] [info]: i16 v,h,dc,p: 23% 25% 36% 15%
---[NoImage] [info]: i4 v,h,dc,ddl,ddr,vr,hd,vl,hu: 17% 20% 13% 8% 9% 8% 8% 8% 9%
---[NoImage] [info]: i8c dc,h,v,p: 52% 23% 17% 7%
---[NoImage] [info]: Weighted P-Frames: Y:3.4% UV:2.3%
---[NoImage] [info]: kb/s:6337.36
---[NoImage] encoded 116761 frames, 19.53 fps, 6337.36 kb/s
--[Information] [18.05.2012 15:39:49] Postprocessing
---[Information] Deleting intermediate files
--[Information] [18.05.2012 15:39:49] Job completed
-[Information] Log for job77 (video, Ice.Age.2002.avs -> Ice.Age.2002.)
--[Information] [18.05.2012 15:39:49] Started handling job
--[Information] [18.05.2012 15:39:49] Preprocessing
--[Information] [18.05.2012 15:39:49] Avisynth input script
---[NoImage] LoadPlugin("C:\Program Files\MeGUI_2112_x86\tools\dgavcindex\DGAVCDecode.dll")
---[NoImage] AVCSource("D:\Films\robota\Ice.Age.2002.Blu-ray.EUR.1080p.AVC\Ice.Age.2002.dga")
---[NoImage] #deinterlace
---[NoImage] crop( 0, 20, 0, -20)
---[NoImage] LanczosResize(1280,688) # Lanczos (Sharp)
---[NoImage] #denoise
--[Information] [18.05.2012 15:39:52] Job commandline: "C:\Program Files\MeGUI_2112_x86\tools\\.exe" --level 4.1 --pass 2 --bitrate 6463 --stats "D:\Films\robota\ICE_AGE_2\122.stats" --keyint 240 --bframes 9 --b-adapt 2 --ref 5 --merange 24 --me umh --subme 11 --trellis 2 --sar 1:1 --output "D:\Films\robota\Ice.Age.2002.Blu-ray.EUR.1080p.AVC\Ice.Age.2002." "D:\Films\robota\Ice.Age.2002.Blu-ray.EUR.1080p.AVC\Ice.Age.2002.avs"
--[Information] [18.05.2012 15:39:52] Encoding started
--[Information] [19.05.2012 0:42:31] Standard output stream
--[Information] [19.05.2012 0:42:31] Standard error stream
---[NoImage] avs [info]: 1280x688p 1:1 @ 24000/1001 fps (cfr)
---[NoImage] [info]: using SAR=1/1
---[NoImage] [info]: using cpu capabilities: MMX2 SSE2Fast SSSE3 FastShuffle SSE4.2 AVX
---[NoImage] [info]: profile High, level 4.1
---[NoImage]
---[NoImage] [info]: frame I:1183 Avg QP: 7.70 size:220525
---[NoImage] [info]: frame P:27854 Avg QP:11.03 size: 65137
---[NoImage] [info]: frame B:87724 Avg QP:15.41 size: 21186
---[NoImage] [info]: consecutive B-frames: 3.3% 3.7% 7.4% 36.5% 13.7% 24.1% 4.2% 4.3% 1.7% 1.3%
---[NoImage] [info]: mb I I16..4: 12.9% 53.9% 33.2%
---[NoImage] [info]: mb P I16..4: 1.2% 16.9% 2.5% P16..4: 24.3% 24.1% 13.8% 0.0% 0.0% skip:17.3%
---[NoImage] [info]: mb B I16..4: 0.2% 3.9% 0.5% B16..8: 24.5% 18.8% 4.9% direct: 7.5% skip:39.7% L0:40.8% L1:41.9% BI:17.4%
---[NoImage] [info]: 8x8 transform intra:80.4% inter:38.6%
---[NoImage] [info]: coded y,uvDC,uvAC intra: 91.9% 85.9% 71.3% inter: 30.6% 22.1% 9.8%
---[NoImage] [info]: i16 v,h,dc,p: 22% 12% 10% 56%
---[NoImage] [info]: i8 v,h,dc,ddl,ddr,vr,hd,vl,hu: 9% 11% 11% 9% 11% 10% 11% 11% 16%
---[NoImage] [info]: i4 v,h,dc,ddl,ddr,vr,hd,vl,hu: 9% 10% 12% 8% 13% 11% 12% 10% 14%
---[NoImage] [info]: i8c dc,h,v,p: 44% 26% 15% 14%
---[NoImage] [info]: Weighted P-Frames: Y:3.4% UV:2.3%
---[NoImage] [info]: ref P L0: 56.9% 6.4% 19.7% 8.5% 7.6% 0.9% 0.0%
---[NoImage] [info]: ref B L0: 76.1% 17.0% 5.4% 1.5%
---[NoImage] [info]: ref B L1: 91.3% 8.7%
---[NoImage] [info]: kb/s:6462.05
---[NoImage] encoded 116761 frames, 3.59 fps, 6462.06 kb/s
--[Information] Final statistics
---[Information] [19.05.2012 0:42:34] Video Bitrate Desired: 6463 kbit/s
---[Information] [19.05.2012 0:42:34] Video Bitrate Obtained (approximate): 6463 kbit/s
--[Information] [19.05.2012 0:42:34] Info
---[Information] File: D:\Films\robota\Ice.Age.2002.Blu-ray.EUR.1080p.AVC\Ice.Age.2002.
---[Information] General
----[Information] Format:
----[Information] FormatString:
----[Information] FileSize: 3934639312
----[Information] PlayTime: 01:21:09.907
---[Information] Video
----[Information] ID: 1
----[Information] StreamOrder: 0
----[Information] Width: 1280
----[Information] Height: 688
----[Information] FrameCount: 116761
----[Information] FrameRate: 23.976
----[Information] ScanType: Progressive
----[Information] Codec: V_MPEG4/ISO/AVC
----[Information] CodecString: AVC
----[Information] Format: AVC
----[Information] AspectRatio: 1.860
----[Information] AspectRatioString: 1.860
----[Information] Delay: 0
----[Information] Title:
----[Information] Language: en
----[Information] LanguageString: English
--[Information] [19.05.2012 0:42:34] Postprocessing
---[Information] Deleting intermediate files
----[Information] [19.05.2012 0:42:34] Successfully deleted D:\Films\robota\ICE_AGE_2\122.stats
--[Information] [19.05.2012 0:42:34] Job completed
Info:

General
Unique ID : 177337482454982704280860594414750218067 (0x8569F4EF065C6430915A6F84563F3753)
Format :
Format version : Version 2
File size : 4.37 GiB
Duration : 1h 21mn
Overall bit rate : 7 712 Kbps
Encoded date : UTC 2012-06-22 22:43:46
Writing application : mkvmerge v5.2.1 ('A Far Off Place') built on Jan 2 2012 23:21:10
Writing library : libebml v1.2.3 + libmatroska v1.3.0
Video #1
ID : 1
Format : AVC
Format/Info : Advanced Video Codec
Format profile : [email protected]
Format settings, CABAC : Yes
Format settings, ReFrames : 5 frames
Codec ID : V_MPEG4/ISO/AVC
Duration : 1h 21mn
Bit rate : 6 463 Kbps
Width : 1 280 pixels
Height : 688 pixels
Display aspect ratio : 1.860
Frame rate : 23.976 fps
Color space : YUV
Chroma subsampling : 4:2:0
Bit depth : 8 bits
Scan type : Progressive
Bits/(Pixel*Frame) : 0.306
Stream size : 3.58 GiB (82%)
Title : Ice Age (2002).Tr_01.Video.[HURTOM] by DiGen.
Writing library : core 120 r2164 da19765
Encoding settings : cabac=1 / ref=5 / deblock=1:0:0 / analyse=0x3:0x113 / me=umh / subme=11 / psy=1 / psy_rd=1.00:0.00 / mixed_ref=1 / me_range=24 / chroma_me=1 / trellis=2 / 8x8dct=1 / cqm=0 / deadzone=21,11 / fast_pskip=1 / chroma_qp_offset=-2 / threads=6 / sliced_threads=0 / nr=0 / decimate=1 / interlaced=0 / bluray_compat=0 / constrained_intra=0 / bframes=9 / b_pyramid=2 / b_adapt=2 / b_bias=0 / direct=1 / weightb=1 / open_gop=0 / weightp=2 / keyint=240 / keyint_min=23 / scenecut=40 / intra_refresh=0 / rc_lookahead=40 / rc=2pass / mbtree=1 / bitrate=6463 / ratetol=1.0 / qcomp=0.60 / qpmin=0 / qpmax=69 / qpstep=4 / cplxblur=20.0 / qblur=0.5 / ip_ratio=1.40 / aq=1:1.00
Language : English
Default : Yes
Forced : Yes
Audio #2
ID : 2
Format : AC-3
Format/Info : Audio Coding 3
Mode extension : CM (complete main)
Codec ID : A_AC3
Duration : 1h 21mn
Bit rate mode : Constant
Bit rate : 384 Kbps
Channel(s) : 2 channels
Channel positions : Front: L R
Sampling rate : 48.0 KHz
Bit depth : 16 bits
Compression mode : Lossy
Delay relative to video : 2s 0ms
Stream size : 223 MiB (5%)
Title : Ice Age (2002).Tr_02.A-UKR.01h21m04s.[ukr 2.0].23.975fps.[Hurtom-Бодя].
Language : Ukrainian
Default : Yes
Forced : Yes
Audio #3
ID : 3
Format : AC-3
Format/Info : Audio Coding 3
Mode extension : CM (complete main)
Codec ID : A_AC3
Duration : 1h 21mn
Bit rate mode : Constant
Bit rate : 640 Kbps
Channel(s) : 6 channels
Channel positions : Front: L C R, Side: L R, LFE
Sampling rate : 48.0 KHz
Bit depth : 16 bits
Compression mode : Lossy
Stream size : 372 MiB (8%)
Title : Ice Age (2002).Tr_03.A-Eng.[AC3_5.1-640].[HURTOM] by DiGen.
Language : English
Default : No
Forced : No
Audio #4
ID : 4
Format : AC-3
Format/Info : Audio Coding 3
Mode extension : CM (complete main)
Codec ID : A_AC3
Duration : 1h 21mn
Bit rate mode : Constant
Bit rate : 224 Kbps
Channel(s) : 2 channels
Channel positions : Front: L R
Sampling rate : 48.0 KHz
Bit depth : 16 bits
Compression mode : Lossy
Stream size : 130 MiB (3%)
Title : Ice Age (2002).Tr_04.A-Eng.[AC3_2.0-224].comments.[HURTOM] by DiGen.
Language : English
Default : No
Forced : No
Text #5
ID : 5
Format : UTF-8
Codec ID : S_TEXT/UTF8
Codec ID/Info : UTF-8 Plain Text
Title : Ice Age (2002).Tr_05.Sub-Eng.[HURTOM] by DiGen.srt
Language : English
Default : Yes
Forced : Yes
Світлини

SOURCE VS RIP






Подяки:
?????? за Українізований постер
?????? за сиру доріжку
Бодя за готову доріжку
Льодовиковий період 2: Глобальне потепління / Ice Age: The Meltdown (2006) 720р Ukr/Eng | Sub Eng

Льодовиковий період 2: Глобальне потепління / Ice Age: The Meltdown (2006) 720р Ukr/Eng | Sub Eng



Жанр: анімація, комедія, сімейний


Кіностудія / кінокомпанія: США
Режисер: Карлос Салдана (Carlos Saldanha)
Актори (в оригіналі): Рей Романо (Менні), Джон Леґізамо (Сід), Деніс Лірі (Дієґо) та ін.

Сюжет:
Льодовиковий період закінчився, і долині, де живуть Менні, Діего та Сід загрожує повінь Їм доведеться об'єднатися, щоб попередити про небезпеку інших жителів.


Тривалість: 01:30:36
Якість:
Відео:
кодек:
розмір кадру: 1280 х 688
бітрейт: 5433 кб/с

Аудіо # 1:
мова: українська
переклад: професійний дубльований
кодек: 2.0
бітрейт: 384 кб/с

Аудіо # 2:
мова: англійська
переклад: оригінал
кодек: 5.1
бітрейт: 640 кб/с

Аудіо # 3:
мова: англійська
переклад: оригінал (коментарі продюсера та ін.)
кодек: 2.0
бітрейт: 224 кб/с

Аудіо # 4:
мова: англійська
переклад: оригінал (коментарі ...)
кодек: 2.0
бітрейт: 224 кб/с

Джерело озвучення:
ТО "Цікава ідея" на замовлення Hurtom.com в рамках проекту Хочеш кіно українською?Замовляй!


Субтитри 1:
мова: англійська
тип: програмні (м'які)
формат: *.srt
x.264 log:

-[Information] Log for job3 (video, F1_T2_Video - .avs -> )
--[Information] [17.06.2012 8:02:24] Started handling job
--[Information] [17.06.2012 8:02:24] Preprocessing
--[Information] [17.06.2012 8:02:24] Avisynth input script
---[NoImage] LoadPlugin("C:\Program Files\MeGUI_2112_x86\tools\dgavcindex\DGAVCDecode.dll")
---[NoImage] AVCSource("D:\Films\robota\ICE_AGE_2\BDMV\F1_T2_Video - .dga")
---[NoImage] #deinterlace
---[NoImage] crop( 0, 22, 0, -22)
---[NoImage] LanczosResize(1280,688) # Lanczos (Sharp)
---[NoImage] #denoise
--[Information] [17.06.2012 8:02:27] Job commandline: "C:\Program Files\MeGUI_2112_x86\tools\\.exe" --level 4.1 --pass 1 --bitrate 5433 --stats "D:\Films\robota\ICE_AGE_2\122.stats" --deblock -3:-3 --keyint 240 --bframes 9 --b-adapt 2 --ref 8 --qpstep 11 --rc-lookahead 42 --merange 24 --me umh --subme 11 --trellis 2 --sar 1:1 --output NUL "D:\Films\robota\ICE_AGE_2\BDMV\F1_T2_Video - .avs"
--[Information] [17.06.2012 8:02:27] Encoding started
--[Information] [17.06.2012 9:51:14] Standard output stream
--[Information] [17.06.2012 9:51:14] Standard error stream
---[NoImage] avs [info]: 1280x688p 1:1 @ 24000/1001 fps (cfr)
---[NoImage] [info]: using SAR=1/1
---[NoImage] [info]: using cpu capabilities: MMX2 SSE2Fast SSSE3 FastShuffle SSE4.2 AVX
---[NoImage] [info]: profile Main, level 4.1
---[NoImage]
---[NoImage] [info]: frame I:1170 Avg QP: 9.23 size:198948
---[NoImage] [info]: frame P:32425 Avg QP:12.76 size: 54987
---[NoImage] [info]: frame B:96737 Avg QP:16.82 size: 16762
---[NoImage] [info]: consecutive B-frames: 2.8% 3.8% 10.7% 42.2% 13.9% 20.0% 2.3% 1.4% 1.0% 1.7%
---[NoImage] [info]: mb I I16..4: 23.5% 0.0% 76.5%
---[NoImage] [info]: mb P I16..4: 22.1% 0.0% 0.0% P16..4: 55.0% 0.0% 0.0% 0.0% 0.0% skip:23.0%
---[NoImage] [info]: mb B I16..4: 4.3% 0.0% 0.0% B16..8: 26.5% 0.0% 0.0% direct:15.5% skip:53.6% L0:28.2% L1:34.4% BI:37.5%
---[NoImage] [info]: final ratefactor: 14.33
---[NoImage] [info]: coded y,uvDC,uvAC intra: 75.1% 71.4% 51.5% inter: 26.0% 16.5% 4.7%
---[NoImage] [info]: i16 v,h,dc,p: 26% 26% 31% 16%
---[NoImage] [info]: i4 v,h,dc,ddl,ddr,vr,hd,vl,hu: 18% 20% 12% 8% 9% 8% 8% 8% 10%
---[NoImage] [info]: i8c dc,h,v,p: 50% 24% 18% 8%
---[NoImage] [info]: Weighted P-Frames: Y:1.7% UV:1.3%
---[NoImage] [info]: kb/s:5352.93
---[NoImage] encoded 130332 frames, 19.98 fps, 5352.93 kb/s
--[Information] [17.06.2012 9:51:14] Postprocessing
---[Information] Deleting intermediate files
--[Information] [17.06.2012 9:51:14] Job completed
-[Information] Log for job4 (video, F1_T2_Video - .avs -> F1_T2_Video - .)
--[Information] [17.06.2012 9:54:35] Started handling job
--[Information] [17.06.2012 9:54:35] Preprocessing
--[Information] [17.06.2012 9:54:35] Avisynth input script
---[NoImage] LoadPlugin("C:\Program Files\MeGUI_2112_x86\tools\dgavcindex\DGAVCDecode.dll")
---[NoImage] AVCSource("D:\Films\robota\ICE_AGE_2\BDMV\F1_T2_Video - .dga")
---[NoImage] #deinterlace
---[NoImage] crop( 0, 22, 0, -22)
---[NoImage] LanczosResize(1280,688) # Lanczos (Sharp)
---[NoImage] #denoise
--[Information] [17.06.2012 9:54:37] Job commandline: "C:\Program Files\MeGUI_2112_x86\tools\\.exe" --level 4.1 --pass 2 --bitrate 5433 --stats "D:\Films\robota\ICE_AGE_2\122.stats" --deblock -3:-3 --keyint 240 --bframes 9 --b-adapt 2 --ref 8 --qpstep 11 --rc-lookahead 42 --merange 24 --me umh --subme 11 --trellis 2 --sar 1:1 --output "D:\Films\robota\ICE_AGE_2\BDMV\F1_T2_Video - ." "D:\Films\robota\ICE_AGE_2\BDMV\F1_T2_Video - .avs"
--[Information] [17.06.2012 9:54:37] Encoding started
--[Information] [17.06.2012 20:33:46] Standard output stream
--[Information] [17.06.2012 20:33:46] Standard error stream
---[NoImage] avs [info]: 1280x688p 1:1 @ 24000/1001 fps (cfr)
---[NoImage] [info]: using SAR=1/1
---[NoImage] [info]: using cpu capabilities: MMX2 SSE2Fast SSSE3 FastShuffle SSE4.2 AVX
---[NoImage] [info]: profile High, level 4.1
---[NoImage]
---[NoImage] [info]: frame I:1170 Avg QP: 9.47 size:215729
---[NoImage] [info]: frame P:32425 Avg QP:13.05 size: 54119
---[NoImage] [info]: frame B:96737 Avg QP:18.35 size: 17400
---[NoImage] [info]: consecutive B-frames: 2.8% 3.8% 10.7% 42.2% 13.9% 20.0% 2.3% 1.4% 1.0% 1.7%
---[NoImage] [info]: mb I I16..4: 10.5% 60.0% 29.6%
---[NoImage] [info]: mb P I16..4: 0.8% 13.0% 1.8% P16..4: 23.4% 24.1% 13.0% 0.0% 0.0% skip:24.0%
---[NoImage] [info]: mb B I16..4: 0.1% 2.6% 0.3% B16..8: 24.2% 16.7% 3.8% direct: 5.0% skip:47.3% L0:40.9% L1:41.7% BI:17.4%
---[NoImage] [info]: 8x8 transform intra:81.5% inter:47.2%
---[NoImage] [info]: coded y,uvDC,uvAC intra: 91.2% 87.8% 72.7% inter: 23.5% 15.3% 6.7%
---[NoImage] [info]: i16 v,h,dc,p: 34% 15% 8% 43%
---[NoImage] [info]: i8 v,h,dc,ddl,ddr,vr,hd,vl,hu: 9% 10% 8% 9% 13% 11% 13% 12% 15%
---[NoImage] [info]: i4 v,h,dc,ddl,ddr,vr,hd,vl,hu: 9% 10% 10% 8% 15% 12% 13% 10% 13%
---[NoImage] [info]: i8c dc,h,v,p: 41% 25% 16% 18%
---[NoImage] [info]: Weighted P-Frames: Y:1.7% UV:1.3%
---[NoImage] [info]: ref P L0: 52.2% 7.1% 16.5% 7.1% 5.4% 4.5% 3.8% 3.0% 0.4% 0.0%
---[NoImage] [info]: ref B L0: 74.6% 11.3% 6.4% 3.1% 2.5% 1.4% 0.7%
---[NoImage] [info]: ref B L1: 93.6% 6.4%
---[NoImage] [info]: kb/s:5431.12
---[NoImage] encoded 130332 frames, 3.40 fps, 5431.13 kb/s
--[Information] Final statistics
---[Information] [17.06.2012 20:33:49] Video Bitrate Desired: 5433 kbit/s
---[Information] [17.06.2012 20:33:49] Video Bitrate Obtained (approximate): 5432 kbit/s
--[Information] [17.06.2012 20:33:53] Info
---[Information] File: D:\Films\robota\ICE_AGE_2\BDMV\F1_T2_Video - .
---[Information] General
----[Information] Format:
----[Information] FormatString:
----[Information] FileSize: 3691433567
----[Information] PlayTime: 01:30:35.930
---[Information] Video
----[Information] ID: 1
----[Information] StreamOrder: 0
----[Information] Width: 1280
----[Information] Height: 688
----[Information] FrameCount: 130332
----[Information] FrameRate: 23.976
----[Information] ScanType: Progressive
----[Information] Codec: V_MPEG4/ISO/AVC
----[Information] CodecString: AVC
----[Information] Format: AVC
----[Information] AspectRatio: 1.860
----[Information] AspectRatioString: 1.860
----[Information] Delay: 0
----[Information] Title:
----[Information] Language: en
----[Information] LanguageString: English
--[Information] [17.06.2012 20:33:53] Postprocessing
---[Information] Deleting intermediate files
----[Information] [17.06.2012 20:33:56] Successfully deleted D:\Films\robota\ICE_AGE_2\122.stats
--[Information] [17.06.2012 20:33:56] Job completed
Info:

General
Unique ID : 179080104013203708793926962736029070299 (0x86B992CF57C5C0E2B0181B70234D73DB)
Format :
Format version : Version 2
File size : 4.37 GiB
Duration : 1h 30mn
Overall bit rate : 6 906 Kbps
Encoded date : UTC 2012-06-22 21:20:54
Writing application : mkvmerge v5.2.1 ('A Far Off Place') built on Jan 2 2012 23:21:10
Writing library : libebml v1.2.3 + libmatroska v1.3.0
Video #1
ID : 1
Format : AVC
Format/Info : Advanced Video Codec
Format profile : [email protected]
Format settings, CABAC : Yes
Format settings, ReFrames : 8 frames
Codec ID : V_MPEG4/ISO/AVC
Duration : 1h 30mn
Bit rate : 5 433 Kbps
Width : 1 280 pixels
Height : 688 pixels
Display aspect ratio : 1.860
Frame rate : 23.976 fps
Color space : YUV
Chroma subsampling : 4:2:0
Bit depth : 8 bits
Scan type : Progressive
Bits/(Pixel*Frame) : 0.257
Stream size : 3.35 GiB (77%)
Title : Ice Age 2 The Meltdown (2006).Tr_01.Video.[HURTOM] by DiGen.
Writing library : core 120 r2164 da19765
Encoding settings : cabac=1 / ref=8 / deblock=1:-3:-3 / analyse=0x3:0x113 / me=umh / subme=11 / psy=1 / psy_rd=1.00:0.00 / mixed_ref=1 / me_range=24 / chroma_me=1 / trellis=2 / 8x8dct=1 / cqm=0 / deadzone=21,11 / fast_pskip=1 / chroma_qp_offset=-2 / threads=6 / sliced_threads=0 / nr=0 / decimate=1 / interlaced=0 / bluray_compat=0 / constrained_intra=0 / bframes=9 / b_pyramid=2 / b_adapt=2 / b_bias=0 / direct=1 / weightb=1 / open_gop=0 / weightp=2 / keyint=240 / keyint_min=23 / scenecut=40 / intra_refresh=0 / rc_lookahead=42 / rc=2pass / mbtree=1 / bitrate=5433 / ratetol=1.0 / qcomp=0.60 / qpmin=0 / qpmax=69 / qpstep=11 / cplxblur=20.0 / qblur=0.5 / ip_ratio=1.40 / aq=1:1.00
Language : English
Default : Yes
Forced : Yes
Audio #2
ID : 2
Format : AC-3
Format/Info : Audio Coding 3
Mode extension : CM (complete main)
Codec ID : A_AC3
Duration : 1h 30mn
Bit rate mode : Constant
Bit rate : 384 Kbps
Channel(s) : 2 channels
Channel positions : Front: L R
Sampling rate : 48.0 KHz
Bit depth : 16 bits
Compression mode : Lossy
Stream size : 249 MiB (6%)
Title : Ice Age 2 The Meltdown (2006).Tr_02.A-UKR.01h30m36s.[2.0-384].23,976fps.[Hurtom-Cikava-Ideja].
Language : Ukrainian
Default : Yes
Forced : Yes
Audio #3
ID : 3
Format : AC-3
Format/Info : Audio Coding 3
Mode extension : CM (complete main)
Codec ID : A_AC3
Duration : 1h 30mn
Bit rate mode : Constant
Bit rate : 640 Kbps
Channel(s) : 6 channels
Channel positions : Front: L C R, Side: L R, LFE
Sampling rate : 48.0 KHz
Bit depth : 16 bits
Compression mode : Lossy
Stream size : 415 MiB (9%)
Title : Ice Age 2 The Meltdown (2006).Tr_03.A-Eng.[AC3_5.1-640].[HURTOM] by DiGen.
Language : English
Default : No
Forced : No
Audio #4
ID : 4
Format : AC-3
Format/Info : Audio Coding 3
Mode extension : CM (complete main)
Codec ID : A_AC3
Duration : 1h 30mn
Bit rate mode : Constant
Bit rate : 224 Kbps
Channel(s) : 2 channels
Channel positions : Front: L R
Sampling rate : 48.0 KHz
Bit depth : 16 bits
Compression mode : Lossy
Stream size : 145 MiB (3%)
Title : Ice Age 2 The Meltdown (2006).Tr_04.A-Eng.[AC3_2.0-224].comments.[HURTOM] by DiGen.
Language : English
Default : No
Forced : No
Audio #5
ID : 5
Format : AC-3
Format/Info : Audio Coding 3
Mode extension : CM (complete main)
Codec ID : A_AC3
Duration : 1h 30mn
Bit rate mode : Constant
Bit rate : 224 Kbps
Channel(s) : 2 channels
Channel positions : Front: L R
Sampling rate : 48.0 KHz
Bit depth : 16 bits
Compression mode : Lossy
Stream size : 145 MiB (3%)
Title : Ice Age 2 The Meltdown (2006).Tr_05.A-Eng.[AC3_2.0-224].comments.[HURTOM] by DiGen.
Language : English
Default : No
Forced : No
Text #6
ID : 6
Format : UTF-8
Codec ID : S_TEXT/UTF8
Codec ID/Info : UTF-8 Plain Text
Title : Ice Age 2 The Meltdown (2006).Tr_06.Sub-Eng.[HURTOM] by DiGen.srt
Language : English
Default : Yes
Forced : Yes
Скріншоти

SOURCE VS RIP






Льодовиковий період 3: Ера динозаврів / Ice Age: Dawn of the Dinosaurs (2009) 720p Ukr/Eng | Sub Ukr/Eng

Льодовиковий період 3: Ера динозаврів / Ice Age: Dawn of the Dinosaurs (2009) 720p Ukr/Eng | Sub Ukr/Eng



Жанр: анімація, екшн, пригодницький, комедія, сімейний, мелодрама / animation, action, adventure, comedy, family, romance
Країна: США / USA



Кіностудія / кінокомпанія: 20th Century Fox, Blue Sky Studios
Режисер: Карлос Салдана (Carlos Saldanha), Майк Турмайер (Mike Thurmeier, co-director)
Героїв озвучували: Рей Романо (Ray Romano, Менні), Кріс Уедж (Chris Wedge, Скрет), Джон Легуизамо (John Leguizamo, Сід), Деніс Лірі (Denis Leary, Дієго), Куїн Латіфа (Queen Latifah, Еллі), Джош Пек (Josh Peck, Едді), Шон Вільям Скотт (Seann William Scott, Креш)

Сюжет:
До подій «Льодовикового періоду 3» життя головних героїв мультфільму зазнає деяких змін. Мамонти Манфред та Еллі очікують появи на світ детинча; саблезубий тигр Дієго впав у роздуми о том, чи не став він занадто «м`якотілим у компанії своїх друзів; ленивець Сід, марячи бажанням створити власне плем`я, вирішив вкрасти кілька яєць динозавра. Відправляючись рятувати Сіда, друзі потрапляють у таємничий рослинний світ, схований під товщою льоду, де вони стикаються з динозаврами, а також знайомляться з винищувачем динозаврів — ласкою Бак.

Пацюко-білка Скрет (котра знову випадковим чином стає винуватицею глобальної проблеми, відкривши шлях в світ динозаврів) все ніяк не заспокоїться зі своїм горіхом, однак цього разу в нього з`явиться конкурент — пацюко-білка Скретті, однак, окрім конкуренції вони знаходять ще й кохання.


Тривалість: 1:34:03
Якість:
Відео:
кодек:
розмір кадру: 1280 х 688
бітрейт: 5373 кб/с

Аудіо # 1:
мова: українська
переклад: професійний дубльований
кодек: 5.1
бітрейт: 448 кб/с

Аудіо # 2:
мова: англійська
переклад: оригінал
кодек: 5.1)
бітрейт: 640 кб/с

Аудіо # 3:
мова: англійська
переклад: оригінал, коментарі
кодек: 2.0
бітрейт: 192 кб/с

Переклад виконано і озвучено:


Субтитри 1:
мова: українська
тип: програмні (м'які)
формат: *.srt

Субтитри 2:
мова: англійська
тип: програмні (м'які)
формат: *.srt
x.264 log:

-[Information] Log for job74 (video, F2_T2_Video - ..avs -> )
--[Information] [18.05.2012 1:53:33] Started handling job
--[Information] [18.05.2012 1:53:33] Preprocessing
--[Information] [18.05.2012 1:53:33] Avisynth input script
---[NoImage] LoadPlugin("C:\Program Files\MeGUI_2112_x86\tools\ffms\ffms2.dll")
---[NoImage] FFVideoSource("D:\Films\robota\ICE_AGE_3_FU\BDMV\F2_T2_Video - .", threads=1)
---[NoImage] #deinterlace
---[NoImage] crop( 0, 22, 0, -22)
---[NoImage] LanczosResize(1280,688) # Lanczos (Sharp)
---[NoImage] #denoise
--[Information] [18.05.2012 1:53:36] Job commandline: "C:\Program Files\MeGUI_2112_x86\tools\\.exe" --level 4.1 --pass 1 --bitrate 5373 --stats "D:\Films\robota\ICE_AGE_2\122.stats" --keyint 240 --bframes 9 --b-adapt 2 --ref 5 --merange 24 --me umh --subme 11 --trellis 2 --sar 1:1 --output NUL "D:\Films\robota\ICE_AGE_3_FU\BDMV\F2_T2_Video - ..avs"
--[Information] [18.05.2012 1:53:36] Encoding started
--[Information] [18.05.2012 4:13:10] Standard output stream
--[Information] [18.05.2012 4:13:10] Standard error stream
---[NoImage] avs [info]: 1280x688p 1:1 @ 24000/1001 fps (cfr)
---[NoImage] [info]: using SAR=1/1
---[NoImage] [info]: using cpu capabilities: MMX2 SSE2Fast SSSE3 FastShuffle SSE4.2 AVX
---[NoImage] [info]: profile Main, level 4.1
---[NoImage]
---[NoImage] [info]: frame I:1207 Avg QP:10.54 size:225097
---[NoImage] [info]: frame P:36077 Avg QP:14.40 size: 56212
---[NoImage] [info]: frame B:98019 Avg QP:18.21 size: 14902
---[NoImage] [info]: consecutive B-frames: 3.3% 5.8% 7.6% 57.2% 10.2% 11.2% 2.3% 1.5% 0.6% 0.3%
---[NoImage] [info]: mb I I16..4: 13.2% 0.0% 86.8%
---[NoImage] [info]: mb P I16..4: 21.4% 0.0% 0.0% P16..4: 60.5% 0.0% 0.0% 0.0% 0.0% skip:18.2%
---[NoImage] [info]: mb B I16..4: 3.9% 0.0% 0.0% B16..8: 28.8% 0.0% 0.0% direct:15.0% skip:52.3% L0:27.4% L1:36.5% BI:36.1%
---[NoImage] [info]: final ratefactor: 15.16
---[NoImage] [info]: coded y,uvDC,uvAC intra: 72.7% 71.9% 47.2% inter: 27.0% 18.7% 4.5%
---[NoImage] [info]: i16 v,h,dc,p: 25% 24% 31% 19%
---[NoImage] [info]: i4 v,h,dc,ddl,ddr,vr,hd,vl,hu: 16% 18% 12% 8% 10% 9% 10% 9% 10%
---[NoImage] [info]: i8c dc,h,v,p: 50% 22% 18% 9%
---[NoImage] [info]: Weighted P-Frames: Y:1.6% UV:1.0%
---[NoImage] [info]: kb/s:5330.73
---[NoImage] encoded 135303 frames, 16.17 fps, 5330.72 kb/s
--[Information] [18.05.2012 4:13:11] Postprocessing
---[Information] Deleting intermediate files
--[Information] [18.05.2012 4:13:11] Job completed
-[Information] Log for job75 (video, F2_T2_Video - ..avs -> F2_T2_Video - ..)
--[Information] [18.05.2012 4:13:11] Started handling job
--[Information] [18.05.2012 4:13:11] Preprocessing
--[Information] [18.05.2012 4:13:11] Avisynth input script
---[NoImage] LoadPlugin("C:\Program Files\MeGUI_2112_x86\tools\ffms\ffms2.dll")
---[NoImage] FFVideoSource("D:\Films\robota\ICE_AGE_3_FU\BDMV\F2_T2_Video - .", threads=1)
---[NoImage] #deinterlace
---[NoImage] crop( 0, 22, 0, -22)
---[NoImage] LanczosResize(1280,688) # Lanczos (Sharp)
---[NoImage] #denoise
--[Information] [18.05.2012 4:13:16] Job commandline: "C:\Program Files\MeGUI_2112_x86\tools\\.exe" --level 4.1 --pass 2 --bitrate 5373 --stats "D:\Films\robota\ICE_AGE_2\122.stats" --keyint 240 --bframes 9 --b-adapt 2 --ref 5 --merange 24 --me umh --subme 11 --trellis 2 --sar 1:1 --output "D:\Films\robota\ICE_AGE_3_FU\BDMV\F2_T2_Video - .." "D:\Films\robota\ICE_AGE_3_FU\BDMV\F2_T2_Video - ..avs"
--[Information] [18.05.2012 4:13:16] Encoding started
--[Information] [18.05.2012 14:00:03] Standard output stream
--[Information] [18.05.2012 14:00:03] Standard error stream
---[NoImage] avs [info]: 1280x688p 1:1 @ 24000/1001 fps (cfr)
---[NoImage] [info]: using SAR=1/1
---[NoImage] [info]: using cpu capabilities: MMX2 SSE2Fast SSSE3 FastShuffle SSE4.2 AVX
---[NoImage] [info]: profile High, level 4.1
---[NoImage]
---[NoImage] [info]: frame I:1207 Avg QP:10.95 size:237097
---[NoImage] [info]: frame P:36077 Avg QP:14.89 size: 55202
---[NoImage] [info]: frame B:98019 Avg QP:19.80 size: 15423
---[NoImage] [info]: consecutive B-frames: 3.3% 5.8% 7.6% 57.2% 10.2% 11.2% 2.3% 1.5% 0.6% 0.3%
---[NoImage] [info]: mb I I16..4: 7.3% 59.3% 33.4%
---[NoImage] [info]: mb P I16..4: 1.0% 14.5% 2.1% P16..4: 23.8% 26.4% 12.6% 0.0% 0.0% skip:19.6%
---[NoImage] [info]: mb B I16..4: 0.2% 2.4% 0.3% B16..8: 27.0% 17.0% 3.3% direct: 4.8% skip:45.1% L0:37.1% L1:45.7% BI:17.2%
---[NoImage] [info]: 8x8 transform intra:80.2% inter:51.4%
---[NoImage] [info]: coded y,uvDC,uvAC intra: 90.1% 87.2% 66.9% inter: 24.4% 17.0% 5.9%
---[NoImage] [info]: i16 v,h,dc,p: 22% 10% 6% 63%
---[NoImage] [info]: i8 v,h,dc,ddl,ddr,vr,hd,vl,hu: 7% 8% 6% 10% 14% 13% 14% 12% 15%
---[NoImage] [info]: i4 v,h,dc,ddl,ddr,vr,hd,vl,hu: 8% 8% 7% 9% 16% 13% 14% 11% 13%
---[NoImage] [info]: i8c dc,h,v,p: 41% 23% 16% 20%
---[NoImage] [info]: Weighted P-Frames: Y:1.6% UV:1.0%
---[NoImage] [info]: ref P L0: 57.9% 10.8% 16.9% 7.5% 6.3% 0.6% 0.0%
---[NoImage] [info]: ref B L0: 84.5% 11.4% 3.1% 0.9%
---[NoImage] [info]: ref B L1: 93.4% 6.6%
---[NoImage] [info]: kb/s:5372.03
---[NoImage] encoded 135303 frames, 3.84 fps, 5372.03 kb/s
--[Information] Final statistics
---[Information] [18.05.2012 14:00:05] Video Bitrate Desired: 5373 kbit/s
---[Information] [18.05.2012 14:00:05] Video Bitrate Obtained (approximate): 5373 kbit/s
--[Information] [18.05.2012 14:00:05] Info
---[Information] File: D:\Films\robota\ICE_AGE_3_FU\BDMV\F2_T2_Video - ..
---[Information] General
----[Information] Format:
----[Information] FormatString:
----[Information] FileSize: 3790540794
----[Information] PlayTime: 01:34:03.263
---[Information] Video
----[Information] ID: 1
----[Information] StreamOrder: 0
----[Information] Width: 1280
----[Information] Height: 688
----[Information] FrameCount: 135303
----[Information] FrameRate: 23.976
----[Information] ScanType: Progressive
----[Information] Codec: V_MPEG4/ISO/AVC
----[Information] CodecString: AVC
----[Information] Format: AVC
----[Information] AspectRatio: 1.860
----[Information] AspectRatioString: 1.860
----[Information] Delay: 0
----[Information] Title:
----[Information] Language: en
----[Information] LanguageString: English
--[Information] [18.05.2012 14:00:05] Postprocessing
---[Information] Deleting intermediate files
----[Information] [18.05.2012 14:00:05] Successfully deleted D:\Films\robota\ICE_AGE_2\122.stats
--[Information] [18.05.2012 14:00:05] Job completed
Info:

General
Unique ID : 200494132969014683749751234183898132971 (0x96D5C3F39B65BF5083F7502A3CD4F1EB)
Format :
Format version : Version 2
File size : 4.37 GiB
Duration : 1h 34mn
Overall bit rate : 6 654 Kbps
Encoded date : UTC 2012-06-23 00:23:52
Writing application : mkvmerge v5.2.1 ('A Far Off Place') built on Jan 2 2012 23:21:10
Writing library : libebml v1.2.3 + libmatroska v1.3.0
Video #1
ID : 1
Format : AVC
Format/Info : Advanced Video Codec
Format profile : [email protected]
Format settings, CABAC : Yes
Format settings, ReFrames : 5 frames
Codec ID : V_MPEG4/ISO/AVC
Duration : 1h 34mn
Bit rate : 5 373 Kbps
Width : 1 280 pixels
Height : 688 pixels
Display aspect ratio : 1.860
Frame rate : 23.976 fps
Color space : YUV
Chroma subsampling : 4:2:0
Bit depth : 8 bits
Scan type : Progressive
Bits/(Pixel*Frame) : 0.254
Stream size : 3.44 GiB (79%)
Title : Ice Age 3 Dawn of the Dinosaurs (2009).Tr_01.Video.[HURTOM] by DiGen.
Writing library : core 120 r2164 da19765
Encoding settings : cabac=1 / ref=5 / deblock=1:0:0 / analyse=0x3:0x113 / me=umh / subme=11 / psy=1 / psy_rd=1.00:0.00 / mixed_ref=1 / me_range=24 / chroma_me=1 / trellis=2 / 8x8dct=1 / cqm=0 / deadzone=21,11 / fast_pskip=1 / chroma_qp_offset=-2 / threads=6 / sliced_threads=0 / nr=0 / decimate=1 / interlaced=0 / bluray_compat=0 / constrained_intra=0 / bframes=9 / b_pyramid=2 / b_adapt=2 / b_bias=0 / direct=1 / weightb=1 / open_gop=0 / weightp=2 / keyint=240 / keyint_min=23 / scenecut=40 / intra_refresh=0 / rc_lookahead=40 / rc=2pass / mbtree=1 / bitrate=5373 / ratetol=1.0 / qcomp=0.60 / qpmin=0 / qpmax=69 / qpstep=4 / cplxblur=20.0 / qblur=0.5 / ip_ratio=1.40 / aq=1:1.00
Language : English
Default : Yes
Forced : Yes
Audio #2
ID : 2
Format : AC-3
Format/Info : Audio Coding 3
Mode extension : CM (complete main)
Codec ID : A_AC3
Duration : 1h 34mn
Bit rate mode : Constant
Bit rate : 448 Kbps
Channel(s) : 6 channels
Channel positions : Front: L C R, Side: L R, LFE
Sampling rate : 48.0 KHz
Bit depth : 16 bits
Compression mode : Lossy
Stream size : 301 MiB (7%)
Title : Ice Age 3 Dawn of the Dinosaurs (2009).Tr_02.A-UKR.[AC3_5.1-448].[HURTOM] by DiGen.
Language : Ukrainian
Default : Yes
Forced : Yes
Audio #3
ID : 3
Format : AC-3
Format/Info : Audio Coding 3
Mode extension : CM (complete main)
Codec ID : A_AC3
Duration : 1h 34mn
Bit rate mode : Constant
Bit rate : 640 Kbps
Channel(s) : 6 channels
Channel positions : Front: L C R, Side: L R, LFE
Sampling rate : 48.0 KHz
Bit depth : 16 bits
Compression mode : Lossy
Stream size : 431 MiB (10%)
Title : Ice Age 3 Dawn of the Dinosaurs (2009).Tr_03.A-Eng.[AC3_5.1-640].[HURTOM] by DiGen.
Language : English
Default : No
Forced : No
Audio #4
ID : 4
Format : AC-3
Format/Info : Audio Coding 3
Mode extension : CM (complete main)
Codec ID : A_AC3
Duration : 1h 34mn
Bit rate mode : Constant
Bit rate : 192 Kbps
Channel(s) : 2 channels
Channel positions : Front: L R
Sampling rate : 48.0 KHz
Bit depth : 16 bits
Compression mode : Lossy
Stream size : 129 MiB (3%)
Title : Ice Age 3 Dawn of the Dinosaurs (2009).Tr_04.A-Eng.[AC3_2.0-192].comments.[HURTOM] by DiGen.
Language : English
Default : No
Forced : No
Text #5
ID : 5
Format : UTF-8
Codec ID : S_TEXT/UTF8
Codec ID/Info : UTF-8 Plain Text
Title : Ice Age 3 Dawn of the Dinosaurs (2009).Tr_05.Sub-UKR.[HURTOM] by DiGen.srt
Language : Ukrainian
Default : Yes
Forced : Yes
Text #6
ID : 6
Format : UTF-8
Codec ID : S_TEXT/UTF8
Codec ID/Info : UTF-8 Plain Text
Title : Ice Age 3 Dawn of the Dinosaurs (2009).Tr_06.Sub-Eng.[HURTOM] by DiGen.srt
Language : English
Default : No
Forced : No
Світлини

SOURCE VS RIP






Бонуси:
Льодовиковий період: Різдво мамонтів / Ice Age: A Mammoth Christmas (2011) 720p 2хUkr/Eng | Sub Ukr/Eng:

Льодовиковий період: Різдво мамонтів / Ice Age: A Mammoth Christmas (2011) 720p 2хUkr/Eng | Sub Ukr/Eng



Жанр: анімація, короткометражка
Країна: США



Кіностудія / кінокомпанія: 20th Century Fox Animation
Режисер: Карен Дішер
Актори: Рей Романо, Джон Легуізамо, Деніс Лірі, Квін Латіфа, Шон Вільям Скотт, Джош Пек

Сюжет:
Коли Сід випадково руйнує різдвяний камінь, Менні говорить йому, що Сід потрапив у чорний список Санти, і що лінивцеві доведеться летіти на північний полюс просити вибачення у Санти. На північному полюсі Сід хотів все зробити як краще, але тільки погіршив ситуацію. Тепер справа за Менні і компанією, тільки вони об'єднавшись збережуть Різдво для всього світу!


Тривалість: 00:25:33
Якість:
Джерело: Blu-ray Disc
Відео:
кодек:
розмір кадру: 1280 x 720
бітрейт: 5822 кб/с

Аудіо # 1:
мова: українська
переклад: професійний дубльований
кодек: 2.0
бітрейт: 192 кб/с

Аудіо # 2:
мова: українська
переклад: професійний дубльований
кодек: 5.1
бітрейт: 384 кб/с

Аудіо # 3:
мова: англійська
переклад: оригінал
кодек: 5.1
бітрейт: 1509 кб/с

Джерело озвучення:
ТО "Цікава ідея" та

Субтитри # 1:
мова: українська
тип: програмні (м'які)
формат: *.srt

Субтитри # 2:
мова: англійська (Full)
тип: програмні (м'які)
формат: *.srt

Субтитри # 3:
мова: англійська (SDH)
тип: програмні (м'які)
формат: *.srt
x.264 log:

-[Information] Log for job92 (video, T1_Video - .avs -> )
--[Information] [31.05.2012 2:16:02] Started handling job
--[Information] [31.05.2012 2:16:02] Preprocessing
-[NoImage] LoadPlugin("C:\Program Files\MeGUI_2112_x86\tools\dgavcindex\DGAVCDecode.dll")
-[NoImage] AVCSource("D:\Films\robota\ICE_AGE_Bonus\Ice.Age.A.Mammoth.Christmas.2011.BluRay.Remux.1080p.Rus.Eng.Ukr\T1_Video - .dga")
-[NoImage] #deinterlace
-[NoImage] crop( 0, 0, 0, 0)
-[NoImage] Lanczos4Resize(1280,720) # Lanczos4 (Sharp)
-[NoImage] #denoise
--[Information] [31.05.2012 2:16:02] Avisynth input script
--[Information] [31.05.2012 2:16:05] Job commandline: "C:\Program Files\MeGUI_2112_x86\tools\\.exe" --level 4.1 --pass 1 --bitrate 5423 --stats "D:\Films\robota\ICE_AGE_2\122.stats" --deblock -3:-3 --keyint 240 --bframes 9 --b-adapt 2 --ref 8 --merange 24 --me umh --subme 11 --trellis 2 --sar 1:1 --output NUL "D:\Films\robota\ICE_AGE_Bonus\Ice.Age.A.Mammoth.Christmas.2011.BluRay.Remux.1080p.Rus.Eng.Ukr\T1_Video - .avs"
--[Information] [31.05.2012 2:16:05] Encoding started
--[Information] [31.05.2012 3:07:46] Standard output stream
-[NoImage] avs [info]: 1280x720p 1:1 @ 24000/1001 fps (cfr)
-[NoImage] [info]: using SAR=1/1
-[NoImage] [info]: using cpu capabilities: MMX2 SSE2Fast SSSE3 FastShuffle SSE4.2 AVX
-[NoImage] [info]: profile Main, level 4.1
-[NoImage]
-[NoImage] [info]: frame I:380 Avg QP: 9.68 size:281671
-[NoImage] [info]: frame P:10823 Avg QP:14.49 size: 52560
-[NoImage] [info]: frame B:25557 Avg QP:19.92 size: 15435
-[NoImage] [info]: consecutive B-frames: 6.8% 4.8% 16.6% 40.3% 15.8% 13.0% 1.5% 0.8% 0.3% 0.2%
-[NoImage] [info]: mb I I16..4: 18.2% 0.0% 81.8%
-[NoImage] [info]: mb P I16..4: 18.9% 0.0% 0.0% P16..4: 49.1% 0.0% 0.0% 0.0% 0.0% skip:32.0%
-[NoImage] [info]: mb B I16..4: 2.8% 0.0% 0.0% B16..8: 24.7% 0.0% 0.0% direct: 9.0% skip:63.6% L0:27.9% L1:34.5% BI:37.5%
-[NoImage] [info]: final ratefactor: 15.88
-[NoImage] [info]: coded y,uvDC,uvAC intra: 70.5% 75.4% 54.7% inter: 20.7% 16.1% 5.7%
-[NoImage] [info]: i16 v,h,dc,p: 27% 28% 27% 18%
-[NoImage] [info]: i4 v,h,dc,ddl,ddr,vr,hd,vl,hu: 13% 21% 12% 8% 9% 8% 10% 8% 11%
-[NoImage] [info]: i8c dc,h,v,p: 48% 24% 17% 11%
-[NoImage] [info]: Weighted P-Frames: Y:1.8% UV:1.5%
-[NoImage] [info]: kb/s:5585.02
-[NoImage] encoded 36760 frames, 11.88 fps, 5585.02 kb/s
--[Information] [31.05.2012 3:07:46] Standard error stream
--[Information] [31.05.2012 3:07:46] Postprocessing
---[Information] Deleting intermediate files
--[Information] [31.05.2012 3:07:46] Job completed
-[Information] Log for job93 (video, T1_Video - .avs -> T1_Video - .)
--[Information] [31.05.2012 3:07:46] Started handling job
--[Information] [31.05.2012 3:07:46] Preprocessing
-[NoImage] LoadPlugin("C:\Program Files\MeGUI_2112_x86\tools\dgavcindex\DGAVCDecode.dll")
-[NoImage] AVCSource("D:\Films\robota\ICE_AGE_Bonus\Ice.Age.A.Mammoth.Christmas.2011.BluRay.Remux.1080p.Rus.Eng.Ukr\T1_Video - .dga")
-[NoImage] #deinterlace
-[NoImage] crop( 0, 0, 0, 0)
-[NoImage] Lanczos4Resize(1280,720) # Lanczos4 (Sharp)
-[NoImage] #denoise
--[Information] [31.05.2012 3:07:46] Avisynth input script
--[Information] [31.05.2012 3:07:49] Job commandline: "C:\Program Files\MeGUI_2112_x86\tools\\.exe" --level 4.1 --pass 2 --bitrate 5423 --stats "D:\Films\robota\ICE_AGE_2\122.stats" --deblock -3:-3 --keyint 240 --bframes 9 --b-adapt 2 --ref 8 --merange 24 --me umh --subme 11 --trellis 2 --sar 1:1 --output "D:\Films\robota\ICE_AGE_Bonus\Ice.Age.A.Mammoth.Christmas.2011.BluRay.Remux.1080p.Rus.Eng.Ukr\T1_Video - ." "D:\Films\robota\ICE_AGE_Bonus\Ice.Age.A.Mammoth.Christmas.2011.BluRay.Remux.1080p.Rus.Eng.Ukr\T1_Video - .avs"
--[Information] [31.05.2012 3:07:49] Encoding started
--[Information] [31.05.2012 7:14:34] Standard output stream
-[NoImage] avs [info]: 1280x720p 1:1 @ 24000/1001 fps (cfr)
-[NoImage] [info]: using SAR=1/1
-[NoImage] [info]: using cpu capabilities: MMX2 SSE2Fast SSSE3 FastShuffle SSE4.2 AVX
-[NoImage] [info]: profile High, level 4.1
-[NoImage]
-[NoImage] [info]: frame I:380 Avg QP:10.02 size:302498
-[NoImage] [info]: frame P:10823 Avg QP:15.13 size: 48178
-[NoImage] [info]: frame B:25557 Avg QP:20.99 size: 15762
-[NoImage] [info]: consecutive B-frames: 6.8% 4.8% 16.6% 40.3% 15.8% 13.0% 1.5% 0.8% 0.3% 0.2%
-[NoImage] [info]: mb I I16..4: 12.0% 46.5% 41.5%
-[NoImage] [info]: mb P I16..4: 1.5% 10.0% 2.0% P16..4: 22.2% 20.1% 10.3% 0.0% 0.0% skip:34.0%
-[NoImage] [info]: mb B I16..4: 0.2% 1.3% 0.2% B16..8: 20.6% 13.1% 3.7% direct: 3.3% skip:57.7% L0:38.6% L1:43.8% BI:17.6%
-[NoImage] [info]: 8x8 transform intra:70.1% inter:47.0%
-[NoImage] [info]: coded y,uvDC,uvAC intra: 84.5% 84.4% 64.1% inter: 17.5% 15.6% 8.0%
-[NoImage] [info]: i16 v,h,dc,p: 19% 12% 8% 61%
-[NoImage] [info]: i8 v,h,dc,ddl,ddr,vr,hd,vl,hu: 8% 9% 7% 10% 13% 12% 14% 12% 15%
-[NoImage] [info]: i4 v,h,dc,ddl,ddr,vr,hd,vl,hu: 8% 9% 8% 9% 15% 13% 14% 11% 14%
-[NoImage] [info]: i8c dc,h,v,p: 38% 24% 16% 22%
-[NoImage] [info]: Weighted P-Frames: Y:1.8% UV:1.5%
-[NoImage] [info]: ref P L0: 58.1% 9.4% 12.7% 5.9% 4.2% 3.9% 2.8% 2.4% 0.5% 0.0%
-[NoImage] [info]: ref B L0: 80.3% 8.5% 4.7% 2.4% 2.2% 1.4% 0.6%
-[NoImage] [info]: ref B L1: 92.8% 7.2%
-[NoImage] [info]: kb/s:5422.48
-[NoImage] encoded 36760 frames, 2.48 fps, 5422.49 kb/s
--[Information] [31.05.2012 7:14:34] Standard error stream
--[Information] Final statistics
---[Information] [31.05.2012 7:14:37] Video Bitrate Desired: 5423 kbit/s
---[Information] [31.05.2012 7:14:37] Video Bitrate Obtained (approximate): 5424 kbit/s
--[Information] [31.05.2012 7:14:38] Info
---[Information] File: D:\Films\robota\ICE_AGE_Bonus\Ice.Age.A.Mammoth.Christmas.2011.BluRay.Remux.1080p.Rus.Eng.Ukr\T1_Video - .
-[Information] Format:
-[Information] FormatString:
-[Information] FileSize: 1039508934
-[Information] PlayTime: 00:25:33.198
---[Information] General
-[Information] ID: 1
-[Information] StreamOrder: 0
-[Information] Width: 1280
-[Information] Height: 720
-[Information] FrameCount: 36760
-[Information] FrameRate: 23.976
-[Information] ScanType: Progressive
-[Information] Codec: V_MPEG4/ISO/AVC
-[Information] CodecString: AVC
-[Information] Format: AVC
-[Information] AspectRatio: 1.778
-[Information] AspectRatioString: 16:9
-[Information] Delay: 0
-[Information] Title:
-[Information] Language: en
-[Information] LanguageString: English
---[Information] Video
--[Information] [31.05.2012 7:14:38] Postprocessing
-[Information] [31.05.2012 7:14:38] Successfully deleted D:\Films\robota\ICE_AGE_2\122.stats
---[Information] Deleting intermediate files
--[Information] [31.05.2012 7:14:38] Job completed
Info:

General
Unique ID : 226935457610301975553878711993067053736 (0xAABA2DE8467B3BEEBC6477EFC60722A8)
Format :
Format version : Version 2
File size : 1.34 GiB
Duration : 25mn 33s
Overall bit rate : 7 510 Kbps
Encoded date : UTC 2012-06-23 01:19:19
Writing application : mkvmerge v5.2.1 ('A Far Off Place') built on Jan 2 2012 23:21:10
Writing library : libebml v1.2.3 + libmatroska v1.3.0
Video #1
ID : 1
Format : AVC
Format/Info : Advanced Video Codec
Format profile : [email protected]
Format settings, CABAC : Yes
Format settings, ReFrames : 8 frames
Codec ID : V_MPEG4/ISO/AVC
Duration : 25mn 33s
Bit rate : 5 423 Kbps
Width : 1 280 pixels
Height : 720 pixels
Display aspect ratio : 16:9
Frame rate : 23.976 fps
Color space : YUV
Chroma subsampling : 4:2:0
Bit depth : 8 bits
Scan type : Progressive
Bits/(Pixel*Frame) : 0.245
Stream size : 964 MiB (70%)
Title : Ice Age. A Mammoth Christmas (2011).Tr-01.Video.[HURTOM] by DiGen
Writing library : core 120 r2164 da19765
Encoding settings : cabac=1 / ref=8 / deblock=1:-3:-3 / analyse=0x3:0x113 / me=umh / subme=11 / psy=1 / psy_rd=1.00:0.00 / mixed_ref=1 / me_range=24 / chroma_me=1 / trellis=2 / 8x8dct=1 / cqm=0 / deadzone=21,11 / fast_pskip=1 / chroma_qp_offset=-2 / threads=6 / sliced_threads=0 / nr=0 / decimate=1 / interlaced=0 / bluray_compat=0 / constrained_intra=0 / bframes=9 / b_pyramid=2 / b_adapt=2 / b_bias=0 / direct=1 / weightb=1 / open_gop=0 / weightp=2 / keyint=240 / keyint_min=23 / scenecut=40 / intra_refresh=0 / rc_lookahead=40 / rc=2pass / mbtree=1 / bitrate=5423 / ratetol=1.0 / qcomp=0.60 / qpmin=0 / qpmax=69 / qpstep=4 / cplxblur=20.0 / qblur=0.5 / ip_ratio=1.40 / aq=1:1.00
Language : English
Default : Yes
Forced : Yes
Audio #2
ID : 2
Format : AC-3
Format/Info : Audio Coding 3
Mode extension : CM (complete main)
Codec ID : A_AC3
Duration : 25mn 33s
Bit rate mode : Constant
Bit rate : 192 Kbps
Channel(s) : 2 channels
Channel positions : Front: L R
Sampling rate : 48.0 KHz
Bit depth : 16 bits
Compression mode : Lossy
Stream size : 35.1 MiB (3%)
Title : Ice Age. A Mammoth Christmas (2011).Tr-02.A-UKR.[TO'Cikava Ideya'].[AC3_2.0-192].[HURTOM] by DiGen.
Language : Ukrainian
Default : Yes
Forced : Yes
Audio #3
ID : 3
Format : AC-3
Format/Info : Audio Coding 3
Mode extension : CM (complete main)
Codec ID : A_AC3
Duration : 25mn 33s
Bit rate mode : Constant
Bit rate : 384 Kbps
Channel(s) : 6 channels
Channel positions : Front: L C R, Side: L R, LFE
Sampling rate : 48.0 KHz
Bit depth : 16 bits
Compression mode : Lossy
Stream size : 70.2 MiB (5%)
Title : Ice Age. A Mammoth Christmas (2011).Tr-03.A-UKR.[AC3_5.1-384].[HURTOM] by DiGen
Language : Ukrainian
Default : No
Forced : No
Audio #4
ID : 4
Format :
Format/Info : Digital Theater Systems
Codec ID : A_DTS
Duration : 25mn 33s
Bit rate mode : Constant
Bit rate : 1 510 Kbps
Channel(s) : 6 channels
Channel positions : Front: L C R, Side: L R, LFE
Sampling rate : 48.0 KHz
Bit depth : 24 bits
Compression mode : Lossy
Stream size : 276 MiB (20%)
Title : Ice Age. A Mammoth Christmas (2011).Tr-04.A-Eng.[DTS_5.1-1536].[HURTOM] by DiGen.
Language : English
Default : No
Forced : No
Text #5
ID : 5
Format : UTF-8
Codec ID : S_TEXT/UTF8
Codec ID/Info : UTF-8 Plain Text
Title : Ice Age. A Mammoth Christmas (2011).Tr-05.Sub-UKR.srt.[HURTOM] by DiGen.srt
Language : Ukrainian
Default : Yes
Forced : Yes
Text #6
ID : 6
Format : UTF-8
Codec ID : S_TEXT/UTF8
Codec ID/Info : UTF-8 Plain Text
Title : Ice Age. A Mammoth Christmas (2011).Tr-06.Sub-Eng.srt.Full.[HURTOM] by DiGen.srt
Language : English
Default : No
Forced : No
Text #7
ID : 7
Format : UTF-8
Codec ID : S_TEXT/UTF8
Codec ID/Info : UTF-8 Plain Text
Title : Ice Age. A Mammoth Christmas (2011).Tr-07.Sub-Eng.srt.SDH.[HURTOM] by DiGen.srt
Language : English
Default : No
Forced : No
Світлини

SOURCE VS RIP




Втрачений горіх / Gone nutty (2002) 720p Eng | Sub Ukr

Втрачений горіх / Gone nutty (2002) 720p Eng | Sub Ukr

Льодовиковий період: Трилогія / Ice Age: Trilogy (2002-2009) 720p Ukr/Eng | Sub Ukr/Eng + Bonus


Жанр: анімація, дитячий, комедія, сімейний
Країна: США



Кіностудія / кінокомпанія: Blue Sky Studios, Twentieth Century Fox Animation, Twentieth Century Fox Film Corporation
Режисер: Карлос Салдана
Актори: Білка

Сюжет:
Що тільки не зробиш заради горішка...


Тривалість: 00:04:44
Якість:
Відео:
кодек:
розмір кадру: 1280 х 688
бітрейт: 5423 кб/с

Аудіо:
мова: англійська
переклад: оригінал
кодек: 5.1
бітрейт: 640 кб/с

Субтитри:
мова: українська (власна робота)
тип: програмні (м'які)
формат: *.srt
Info

General
Unique ID : 220135109468126792007660703307908721737 (0xA59C7ADB9D80EC0BADF2324B628F2C49)
Format :
Format version : Version 2
File size : 206 MiB
Duration : 4mn 44s
Overall bit rate : 6 074 Kbps
Encoded date : UTC 2012-06-03 19:38:52
Writing application : mkvmerge v5.2.1 ('A Far Off Place') built on Jan 2 2012 23:21:10
Writing library : libebml v1.2.3 + libmatroska v1.3.0
Video #1
ID : 1
Format : AVC
Format/Info : Advanced Video Codec
Format profile : [email protected]
Format settings, CABAC : Yes
Format settings, ReFrames : 8 frames
Codec ID : V_MPEG4/ISO/AVC
Duration : 4mn 44s
Bit rate : 5 423 Kbps
Width : 1 280 pixels
Height : 688 pixels
Display aspect ratio : 1.860
Frame rate : 23.976 fps
Color space : YUV
Chroma subsampling : 4:2:0
Bit depth : 8 bits
Scan type : Progressive
Bits/(Pixel*Frame) : 0.257
Stream size : 180 MiB (87%)
Title : Scrat. Gone nutty (2002) 720p.Tr_01.Video.[HURTOM] by DiGen
Writing library : core 120 r2164 da19765
Encoding settings : cabac=1 / ref=8 / deblock=1:-3:-3 / analyse=0x3:0x113 / me=umh / subme=11 / psy=1 / psy_rd=1.00:0.00 / mixed_ref=1 / me_range=24 / chroma_me=1 / trellis=2 / 8x8dct=1 / cqm=0 / deadzone=21,11 / fast_pskip=1 / chroma_qp_offset=-2 / threads=6 / sliced_threads=0 / nr=0 / decimate=1 / interlaced=0 / bluray_compat=0 / constrained_intra=0 / bframes=10 / b_pyramid=2 / b_adapt=2 / b_bias=0 / direct=1 / weightb=1 / open_gop=0 / weightp=2 / keyint=240 / keyint_min=23 / scenecut=40 / intra_refresh=0 / rc_lookahead=40 / rc=2pass / mbtree=1 / bitrate=5423 / ratetol=1.0 / qcomp=0.60 / qpmin=0 / qpmax=69 / qpstep=11 / cplxblur=20.0 / qblur=0.5 / ip_ratio=1.40 / aq=1:1.00
Language : English
Default : Yes
Forced : Yes
Audio #2
ID : 2
Format : AC-3
Format/Info : Audio Coding 3
Mode extension : CM (complete main)
Codec ID : A_AC3
Duration : 4mn 44s
Bit rate mode : Constant
Bit rate : 640 Kbps
Channel(s) : 6 channels
Channel positions : Front: L C R, Side: L R, LFE
Sampling rate : 48.0 KHz
Bit depth : 16 bits
Compression mode : Lossy
Stream size : 21.7 MiB (11%)
Title : Scrat. Gone nutty (2002) 720p.Tr_02.A-Eng.[AC3_5.1-640].[HURTOM] by DiGen
Language : English
Default : Yes
Forced : Yes
Text #3
ID : 3
Format : UTF-8
Codec ID : S_TEXT/UTF8
Codec ID/Info : UTF-8 Plain Text
Title : Scrat. Gone nutty (2002) 720p.Tr_03.Sub-UKR.srt.[HURTOM] by DiGen
Language : Ukrainian
Default : Yes
Forced : Yes
Світлини

SOURCE VS RIP


Скрат: немає часу для горіхів / Scrat: No Time for Nuts (2006) 720p Eng | Sub Ukr

Скрат: немає часу для горіхів / Scrat: No Time for Nuts (2006) 720p Eng | Sub Ukr

Льодовиковий період: Трилогія / Ice Age: Trilogy (2002-2009) 720p Ukr/Eng | Sub Ukr/Eng + Bonus


Жанр: дитячий, комедія
Країна: США



Кіностудія / кінокомпанія: Blue Sky Studios
Режисер: Кріс Ренауд/Майк Турмеєр
Актори: Білка

Сюжет:
Білка з «Льодовикового періоду» в невеликому мультику, в якому вона знаходить машину часу ...

Номінант на премію "Оскар-2007" в номінації "Кращий короткометражний фильм".


Тривалість: 00:07:09
Якість:
Відео:
кодек:
розмір кадру: 1280 х 720
бітрейт: 5423 кб/с

Аудіо:
мова: англійська
переклад: оригінал
кодек: 5.1
бітрейт: 448 кб/с

Субтитри:
мова: українська (власна робота)
тип: програмні (м'які)
формат: *.srt
x.264 log:

-[Information] Log for job87 (video, T1_Video - ..avs -> )
--[Information] [31.05.2012 0:47:33] Started handling job
--[Information] [31.05.2012 0:47:33] Preprocessing
-[NoImage] LoadPlugin("C:\Program Files\MeGUI_2112_x86\tools\ffms\ffms2.dll")
-[NoImage] FFVideoSource("D:\Films\robota\ICE_AGE_Bonus\Scrat.No.Time.For.Nuts.1080p\T1_Video - .", threads=1)
-[NoImage] #deinterlace
-[NoImage] #crop
-[NoImage] Lanczos4Resize(1280,720) # Lanczos4 (Sharp)
-[NoImage] #denoise
--[Information] [31.05.2012 0:47:33] Avisynth input script
--[Information] [31.05.2012 0:47:36] Job commandline: "C:\Program Files\MeGUI_2112_x86\tools\\.exe" --level 4.1 --pass 1 --bitrate 5423 --stats "D:\Films\robota\ICE_AGE_2\122.stats" --deblock -3:-3 --keyint 240 --bframes 9 --b-adapt 2 --ref 8 --merange 32 --me umh --subme 11 --trellis 2 --sar 1:1 --output NUL "D:\Films\robota\ICE_AGE_Bonus\Scrat.No.Time.For.Nuts.1080p\T1_Video - ..avs"
--[Information] [31.05.2012 0:47:36] Encoding started
--[Information] [31.05.2012 0:58:01] Standard output stream
-[NoImage] avs [info]: 1280x720p 1:1 @ 24000/1001 fps (cfr)
-[NoImage] [info]: using SAR=1/1
-[NoImage] [info]: using cpu capabilities: MMX2 SSE2Fast SSSE3 FastShuffle SSE4.2 AVX
-[NoImage] [info]: profile Main, level 4.1
-[NoImage]
-[NoImage] [info]: frame I:78 Avg QP: 6.94 size:154740
-[NoImage] [info]: frame P:3081 Avg QP:11.22 size: 49513
-[NoImage] [info]: frame B:7151 Avg QP:14.08 size: 16441
-[NoImage] [info]: consecutive B-frames: 7.7% 9.2% 17.1% 19.6% 9.6% 28.6% 4.5% 1.5% 1.2% 1.1%
-[NoImage] [info]: mb I I16..4: 34.6% 0.0% 65.4%
-[NoImage] [info]: mb P I16..4: 25.6% 0.0% 0.0% P16..4: 44.9% 0.0% 0.0% 0.0% 0.0% skip:29.5%
-[NoImage] [info]: mb B I16..4: 6.0% 0.0% 0.0% B16..8: 24.2% 0.0% 0.0% direct:16.5% skip:53.3% L0:37.6% L1:40.6% BI:21.8%
-[NoImage] [info]: final ratefactor: 12.42
-[NoImage] [info]: coded y,uvDC,uvAC intra: 56.9% 74.8% 57.7% inter: 24.1% 20.6% 7.3%
-[NoImage] [info]: i16 v,h,dc,p: 35% 33% 20% 12%
-[NoImage] [info]: i4 v,h,dc,ddl,ddr,vr,hd,vl,hu: 23% 24% 10% 7% 8% 7% 7% 7% 8%
-[NoImage] [info]: i8c dc,h,v,p: 48% 27% 16% 10%
-[NoImage] [info]: Weighted P-Frames: Y:7.0% UV:4.0%
-[NoImage] [info]: kb/s:5249.90
-[NoImage] encoded 10310 frames, 16.64 fps, 5249.90 kb/s
--[Information] [31.05.2012 0:58:01] Standard error stream
--[Information] [31.05.2012 0:58:01] Postprocessing
---[Information] Deleting intermediate files
--[Information] [31.05.2012 0:58:01] Job completed
-[Information] Log for job88 (video, T1_Video - ..avs -> T1_Video - ..)
--[Information] [31.05.2012 0:58:01] Started handling job
--[Information] [31.05.2012 0:58:01] Preprocessing
-[NoImage] LoadPlugin("C:\Program Files\MeGUI_2112_x86\tools\ffms\ffms2.dll")
-[NoImage] FFVideoSource("D:\Films\robota\ICE_AGE_Bonus\Scrat.No.Time.For.Nuts.1080p\T1_Video - .", threads=1)
-[NoImage] #deinterlace
-[NoImage] #crop
-[NoImage] Lanczos4Resize(1280,720) # Lanczos4 (Sharp)
-[NoImage] #denoise
--[Information] [31.05.2012 0:58:01] Avisynth input script
--[Information] [31.05.2012 0:58:03] Job commandline: "C:\Program Files\MeGUI_2112_x86\tools\\.exe" --level 4.1 --pass 2 --bitrate 5423 --stats "D:\Films\robota\ICE_AGE_2\122.stats" --deblock -3:-3 --keyint 240 --bframes 9 --b-adapt 2 --ref 8 --merange 32 --me umh --subme 11 --trellis 2 --sar 1:1 --output "D:\Films\robota\ICE_AGE_Bonus\Scrat.No.Time.For.Nuts.1080p\T1_Video - .." "D:\Films\robota\ICE_AGE_Bonus\Scrat.No.Time.For.Nuts.1080p\T1_Video - ..avs"
--[Information] [31.05.2012 0:58:03] Encoding started
---[Information] Video
--[Information] [31.05.2012 2:01:25] Standard output stream
-[NoImage] avs [info]: 1280x720p 1:1 @ 24000/1001 fps (cfr)
-[NoImage] [info]: using SAR=1/1
-[NoImage] [info]: using cpu capabilities: MMX2 SSE2Fast SSSE3 FastShuffle SSE4.2 AVX
-[NoImage] [info]: profile High, level 4.1
-[NoImage]
-[NoImage] [info]: frame I:78 Avg QP: 7.61 size:168501
-[NoImage] [info]: frame P:3081 Avg QP:11.34 size: 50308
-[NoImage] [info]: frame B:7151 Avg QP:14.70 size: 17175
-[NoImage] [info]: consecutive B-frames: 7.7% 9.2% 17.1% 19.6% 9.6% 28.6% 4.5% 1.5% 1.2% 1.1%
-[NoImage] [info]: mb I I16..4: 23.8% 42.0% 34.2%
-[NoImage] [info]: mb P I16..4: 3.3% 15.0% 3.9% P16..4: 21.1% 16.5% 8.5% 0.0% 0.0% skip:31.6%
-[NoImage] [info]: mb B I16..4: 1.0% 4.2% 0.8% B16..8: 22.8% 13.5% 2.9% direct: 7.0% skip:47.8% L0:46.1% L1:41.2% BI:12.7%
-[NoImage] [info]: 8x8 transform intra:67.0% inter:43.7%
-[NoImage] [info]: coded y,uvDC,uvAC intra: 71.0% 84.6% 75.9% inter: 21.7% 20.3% 10.7%
-[NoImage] [info]: i16 v,h,dc,p: 40% 27% 6% 27%
-[NoImage] [info]: i8 v,h,dc,ddl,ddr,vr,hd,vl,hu: 10% 14% 15% 8% 9% 8% 10% 10% 15%
-[NoImage] [info]: i4 v,h,dc,ddl,ddr,vr,hd,vl,hu: 13% 17% 20% 6% 9% 8% 9% 7% 11%
-[NoImage] [info]: i8c dc,h,v,p: 35% 33% 16% 16%
-[NoImage] [info]: Weighted P-Frames: Y:7.0% UV:4.0%
-[NoImage] [info]: ref P L0: 51.0% 4.8% 18.3% 8.7% 5.5% 4.2% 3.8% 2.8% 0.9% 0.0%
-[NoImage] [info]: ref B L0: 71.3% 13.4% 6.9% 3.8% 2.5% 1.5% 0.6%
-[NoImage] [info]: ref B L1: 92.0% 8.0%
-[NoImage] [info]: kb/s:5413.03
-[NoImage] encoded 10310 frames, 2.71 fps, 5413.04 kb/s
--[Information] [31.05.2012 2:01:25] Standard error stream
--[Information] Final statistics
---[Information] [31.05.2012 2:01:28] Video Bitrate Desired: 5423 kbit/s
---[Information] [31.05.2012 2:01:28] Video Bitrate Obtained (approximate): 5414 kbit/s
--[Information] [31.05.2012 2:01:28] Info
---[Information] File: D:\Films\robota\ICE_AGE_Bonus\Scrat.No.Time.For.Nuts.1080p\T1_Video - ..
-[Information] Format:
-[Information] FormatString:
-[Information] FileSize: 291041000
-[Information] PlayTime: 00:07:10.013
---[Information] General
-[Information] ID: 1
-[Information] StreamOrder: 0
-[Information] Width: 1280
-[Information] Height: 720
-[Information] FrameCount: 10310
-[Information] FrameRate: 23.976
-[Information] ScanType: Progressive
-[Information] Codec: V_MPEG4/ISO/AVC
-[Information] CodecString: AVC
-[Information] Format: AVC
-[Information] AspectRatio: 1.778
-[Information] AspectRatioString: 16:9
-[Information] Delay: 0
-[Information] Title:
-[Information] Language: en
-[Information] LanguageString: English
---[Information] Video
--[Information] [31.05.2012 2:01:28] Postprocessing
-[Information] [31.05.2012 2:01:28] Successfully deleted D:\Films\robota\ICE_AGE_2\122.stats
---[Information] Deleting intermediate files
--[Information] [31.05.2012 2:01:28] Job completed
Info

General
Unique ID : 251394123324954098555457366080393408933 (0xBD20BF3B1806E9E2972CDD825B3571A5)
Format :
Format version : Version 2
File size : 300 MiB
Duration : 7mn 10s
Overall bit rate : 5 860 Kbps
Encoded date : UTC 2012-06-03 21:19:27
Writing application : mkvmerge v5.2.1 ('A Far Off Place') built on Jan 2 2012 23:21:10
Writing library : libebml v1.2.3 + libmatroska v1.3.0
Video #1
ID : 1
Format : AVC
Format/Info : Advanced Video Codec
Format profile : [email protected]
Format settings, CABAC : Yes
Format settings, ReFrames : 8 frames
Codec ID : V_MPEG4/ISO/AVC
Duration : 7mn 10s
Bit rate : 5 423 Kbps
Width : 1 280 pixels
Height : 720 pixels
Display aspect ratio : 16:9
Frame rate : 23.976 fps
Color space : YUV
Chroma subsampling : 4:2:0
Bit depth : 8 bits
Scan type : Progressive
Bits/(Pixel*Frame) : 0.245
Stream size : 271 MiB (90%)
Title : Scrat.No time for nuts (2007) 720p.Tr_01.Video.[HURTOM] by DiGen
Writing library : core 120 r2164 da19765
Encoding settings : cabac=1 / ref=8 / deblock=1:-3:-3 / analyse=0x3:0x113 / me=umh / subme=11 / psy=1 / psy_rd=1.00:0.00 / mixed_ref=1 / me_range=32 / chroma_me=1 / trellis=2 / 8x8dct=1 / cqm=0 / deadzone=21,11 / fast_pskip=1 / chroma_qp_offset=-2 / threads=6 / sliced_threads=0 / nr=0 / decimate=1 / interlaced=0 / bluray_compat=0 / constrained_intra=0 / bframes=9 / b_pyramid=2 / b_adapt=2 / b_bias=0 / direct=1 / weightb=1 / open_gop=0 / weightp=2 / keyint=240 / keyint_min=23 / scenecut=40 / intra_refresh=0 / rc_lookahead=40 / rc=2pass / mbtree=1 / bitrate=5423 / ratetol=1.0 / qcomp=0.60 / qpmin=0 / qpmax=69 / qpstep=4 / cplxblur=20.0 / qblur=0.5 / ip_ratio=1.40 / aq=1:1.00
Language : English
Default : Yes
Forced : Yes
Audio #2
ID : 2
Format : AC-3
Format/Info : Audio Coding 3
Mode extension : CM (complete main)
Codec ID : A_AC3
Duration : 7mn 10s
Bit rate mode : Constant
Bit rate : 448 Kbps
Channel(s) : 6 channels
Channel positions : Front: L C R, Side: L R, LFE
Sampling rate : 48.0 KHz
Bit depth : 16 bits
Compression mode : Lossy
Stream size : 23.0 MiB (8%)
Title : Scrat.No time for nuts (2007) 720p.Tr_02.A-Eng.[AC3_5.1-448].[HURTOM] by DiGen
Language : English
Default : Yes
Forced : Yes
Text #3
ID : 3
Format : UTF-8
Codec ID : S_TEXT/UTF8
Codec ID/Info : UTF-8 Plain Text
Title : Scrat.No time for nuts (2007) 720p.Tr_03.Sub-UKR.srt.[HURTOM] by DiGen
Language : Ukrainian
Default : Yes
Forced : Yes
Світлини

SOURCE VS RIP


Сід, посібник по виживанню / Surviving Sid (2008) 720p UKR/Eng | Sub Ukr/Eng

Сід, посібник по виживанню / Surviving Sid (2008) 720p Ukr/Eng | Sub Ukr/Eng

Льодовиковий період: Трилогія / Ice Age: Trilogy (2002-2009) 720p Ukr/Eng | Sub Ukr/Eng + Bonus


Жанр: анімація, дитячий, комедія, сімейний
Країна: США



Кіностудія / кінокомпанія: Blue Sky Studios
Режисер: Гален Т. Чу / Galen T. Chu, Карен Дішер / Karen Disher
Актори: Джон Легуізамо, Пол Батчер та ін.

Сюжет:
Сід веде дітей в похід, та на шляху трапляються різні ситуації. Але діти швидко втомлюються від нескінченних дурниць лінивця і беруть владу в свої руки...


Тривалість: 00:07:59
Якість:
Відео:
кодек:
розмір кадру: 1280 х 720
бітрейт: 5423 кб/с

Аудіо:
мова: українська
переклад: одноголосий закадровий
кодек: 5.1
бітрейт: 448 кб/с

Аудіо:
мова: англійська
переклад: оригінал
кодек: МП3 2.0
бітрейт: 128 кб/с

Субтитри:
мова: українська (Kralechka; тести пісеньки та корегування - DiGen)
тип: програмні (м'які)
формат: *.srt

Субтитри:
мова: англійська
тип: програмні (м'які)
формат: *.srt
x.264 log:

-[Information] Log for job103 (video, T1_Video - .avs -> )
--[Information] [03.06.2012 21:43:38] Started handling job
--[Information] [03.06.2012 21:43:38] Preprocessing
--[Information] [03.06.2012 21:43:38] Avisynth input script
---[NoImage] LoadPlugin("C:\Program Files\MeGUI_2112_x86\tools\dgavcindex\DGAVCDecode.dll")
---[NoImage] AVCSource("D:\Films\robota\ICE_AGE_Bonus\Surviving Sid\T1_Video - .dga")
---[NoImage] #deinterlace
---[NoImage] #crop
---[NoImage] Lanczos4Resize(1280,720) # Lanczos4 (Sharp)
---[NoImage] #denoise
--[Information] [03.06.2012 21:43:41] Job commandline: "C:\Program Files\MeGUI_2112_x86\tools\\.exe" --level 4.1 --pass 1 --bitrate 5423 --stats "D:\Films\robota\ICE_AGE_2\122.stats" --deblock -3:-3 --keyint 240 --bframes 9 --b-adapt 2 --ref 8 --merange 24 --me umh --subme 11 --trellis 2 --sar 1:1 --output NUL "D:\Films\robota\ICE_AGE_Bonus\Surviving Sid\T1_Video - .avs"
--[Information] [03.06.2012 21:43:41] Encoding started
--[Information] [03.06.2012 21:53:26] Standard output stream
--[Information] [03.06.2012 21:53:26] Standard error stream
---[NoImage] avs [info]: 1280x720p 1:1 @ 2997/125 fps (cfr)
---[NoImage] [info]: using SAR=1/1
---[NoImage] [info]: using cpu capabilities: MMX2 SSE2Fast SSSE3 FastShuffle SSE4.2 AVX
---[NoImage] [info]: profile Main, level 4.1
---[NoImage]
---[NoImage] [info]: frame I:106 Avg QP: 8.79 size:278392
---[NoImage] [info]: frame P:3148 Avg QP:12.34 size: 56577
---[NoImage] [info]: frame B:8244 Avg QP:17.17 size: 13827
---[NoImage] [info]: consecutive B-frames: 4.6% 10.3% 10.1% 34.9% 13.9% 9.5% 3.4% 11.8% 0.5% 1.0%
---[NoImage] [info]: mb I I16..4: 14.1% 0.0% 85.9%
---[NoImage] [info]: mb P I16..4: 18.0% 0.0% 0.0% P16..4: 57.5% 0.0% 0.0% 0.0% 0.0% skip:24.5%
---[NoImage] [info]: mb B I16..4: 3.6% 0.0% 0.0% B16..8: 25.5% 0.0% 0.0% direct:14.2% skip:56.8% L0:31.5% L1:37.9% BI:30.6%
---[NoImage] [info]: final ratefactor: 14.31
---[NoImage] [info]: coded y,uvDC,uvAC intra: 78.9% 88.2% 72.4% inter: 23.7% 20.4% 6.8%
---[NoImage] [info]: i16 v,h,dc,p: 25% 25% 34% 16%
---[NoImage] [info]: i4 v,h,dc,ddl,ddr,vr,hd,vl,hu: 19% 18% 9% 8% 10% 10% 9% 9% 9%
---[NoImage] [info]: i8c dc,h,v,p: 51% 21% 18% 10%
---[NoImage] [info]: Weighted P-Frames: Y:6.2% UV:5.0%
---[NoImage] [info]: kb/s:5364.96
---[NoImage] encoded 11498 frames, 19.84 fps, 5364.96 kb/s
--[Information] [03.06.2012 21:53:26] Postprocessing
---[Information] Deleting intermediate files
--[Information] [03.06.2012 21:53:26] Job completed
-[Information] Log for job104 (video, T1_Video - .avs -> T1_Video - .)
--[Information] [03.06.2012 21:53:26] Started handling job
--[Information] [03.06.2012 21:53:26] Preprocessing
--[Information] [03.06.2012 21:53:26] Avisynth input script
---[NoImage] LoadPlugin("C:\Program Files\MeGUI_2112_x86\tools\dgavcindex\DGAVCDecode.dll")
---[NoImage] AVCSource("D:\Films\robota\ICE_AGE_Bonus\Surviving Sid\T1_Video - .dga")
---[NoImage] #deinterlace
---[NoImage] #crop
---[NoImage] Lanczos4Resize(1280,720) # Lanczos4 (Sharp)
---[NoImage] #denoise
--[Information] [03.06.2012 21:53:28] Job commandline: "C:\Program Files\MeGUI_2112_x86\tools\\.exe" --level 4.1 --pass 2 --bitrate 5423 --stats "D:\Films\robota\ICE_AGE_2\122.stats" --deblock -3:-3 --keyint 240 --bframes 9 --b-adapt 2 --ref 8 --merange 24 --me umh --subme 11 --trellis 2 --sar 1:1 --output "D:\Films\robota\ICE_AGE_Bonus\Surviving Sid\T1_Video - ." "D:\Films\robota\ICE_AGE_Bonus\Surviving Sid\T1_Video - .avs"
--[Information] [03.06.2012 21:53:28] Encoding started
--[Information] [03.06.2012 23:00:46] Standard output stream
--[Information] [03.06.2012 23:00:46] Standard error stream
---[NoImage] avs [info]: 1280x720p 1:1 @ 2997/125 fps (cfr)
---[NoImage] [info]: using SAR=1/1
---[NoImage] [info]: using cpu capabilities: MMX2 SSE2Fast SSSE3 FastShuffle SSE4.2 AVX
---[NoImage] [info]: profile High, level 4.1
---[NoImage]
---[NoImage] [info]: frame I:106 Avg QP: 9.15 size:299039
---[NoImage] [info]: frame P:3148 Avg QP:12.52 size: 55764
---[NoImage] [info]: frame B:8244 Avg QP:18.73 size: 14300
---[NoImage] [info]: consecutive B-frames: 4.6% 10.3% 10.1% 34.9% 13.9% 9.5% 3.4% 11.8% 0.5% 1.0%
---[NoImage] [info]: mb I I16..4: 5.0% 55.0% 40.0%
---[NoImage] [info]: mb P I16..4: 0.7% 11.1% 1.8% P16..4: 25.0% 23.0% 13.3% 0.0% 0.0% skip:25.2%
---[NoImage] [info]: mb B I16..4: 0.1% 2.4% 0.2% B16..8: 23.2% 15.6% 3.6% direct: 5.3% skip:49.7% L0:40.8% L1:43.2% BI:16.0%
---[NoImage] [info]: 8x8 transform intra:79.7% inter:46.6%
---[NoImage] [info]: coded y,uvDC,uvAC intra: 91.7% 94.7% 83.5% inter: 21.6% 20.0% 10.0%
---[NoImage] [info]: i16 v,h,dc,p: 27% 17% 11% 46%
---[NoImage] [info]: i8 v,h,dc,ddl,ddr,vr,hd,vl,hu: 10% 9% 9% 10% 13% 12% 12% 12% 14%
---[NoImage] [info]: i4 v,h,dc,ddl,ddr,vr,hd,vl,hu: 13% 11% 8% 8% 14% 12% 12% 10% 12%
---[NoImage] [info]: i8c dc,h,v,p: 48% 18% 14% 20%
---[NoImage] [info]: Weighted P-Frames: Y:6.2% UV:5.0%
---[NoImage] [info]: ref P L0: 57.1% 7.7% 15.9% 6.3% 4.1% 3.3% 2.9% 2.1% 0.6% 0.0%
---[NoImage] [info]: ref B L0: 78.6% 11.1% 4.8% 2.3% 1.7% 1.0% 0.5%
---[NoImage] [info]: ref B L1: 93.3% 6.7%
---[NoImage] [info]: kb/s:5423.76
---[NoImage] encoded 11498 frames, 2.85 fps, 5423.78 kb/s
--[Information] Final statistics
---[Information] [03.06.2012 23:00:49] Video Bitrate Desired: 5423 kbit/s
---[Information] [03.06.2012 23:00:49] Video Bitrate Obtained (approximate): 5425 kbit/s
--[Information] [03.06.2012 23:00:49] Info
---[Information] File: D:\Films\robota\ICE_AGE_Bonus\Surviving Sid\T1_Video - .
---[Information] General
----[Information] Format:
----[Information] FormatString:
----[Information] FileSize: 325220501
----[Information] PlayTime: 00:07:59.563
---[Information] Video
----[Information] ID: 1
----[Information] StreamOrder: 0
----[Information] Width: 1280
----[Information] Height: 720
----[Information] FrameCount: 11498
----[Information] FrameRate: 23.976
----[Information] ScanType: Progressive
----[Information] Codec: V_MPEG4/ISO/AVC
----[Information] CodecString: AVC
----[Information] Format: AVC
----[Information] AspectRatio: 1.778
----[Information] AspectRatioString: 16:9
----[Information] Delay: 0
----[Information] Title:
----[Information] Language: en
----[Information] LanguageString: English
--[Information] [03.06.2012 23:00:49] Postprocessing
---[Information] Deleting intermediate files
----[Information] [03.06.2012 23:00:49] Successfully deleted D:\Films\robota\ICE_AGE_2\122.stats
--[Information] [03.06.2012 23:00:49] Job completed
Info

General
Unique ID : 191159397812150164768501140707761274943 (0x8FCFF5F997F245899BA6D761CD19403F)
Format :
Format version : Version 2
File size : 343 MiB
Duration : 7mn 59s
Overall bit rate : 6 002 Kbps
Encoded date : UTC 2012-07-11 20:26:55
Writing application : mkvmerge v5.6.0 ('Kenya Kane') built on May 27 2012 16:44:04
Writing library : libebml v1.2.3 + libmatroska v1.3.0
Video #1
ID : 1
Format : AVC
Format/Info : Advanced Video Codec
Format profile : [email protected]
Format settings, CABAC : Yes
Format settings, ReFrames : 8 frames
Codec ID : V_MPEG4/ISO/AVC
Duration : 7mn 59s
Bit rate : 5 423 Kbps
Width : 1 280 pixels
Height : 720 pixels
Display aspect ratio : 16:9
Frame rate : 23.976 fps
Color space : YUV
Chroma subsampling : 4:2:0
Bit depth : 8 bits
Scan type : Progressive
Bits/(Pixel*Frame) : 0.245
Stream size : 303 MiB (88%)
Title : Surviving Sid (2008) 720p.Tr_01.Video.[HURTOM] by DiGen
Writing library : core 120 r2164 da19765
Encoding settings : cabac=1 / ref=8 / deblock=1:-3:-3 / analyse=0x3:0x113 / me=umh / subme=11 / psy=1 / psy_rd=1.00:0.00 / mixed_ref=1 / me_range=24 / chroma_me=1 / trellis=2 / 8x8dct=1 / cqm=0 / deadzone=21,11 / fast_pskip=1 / chroma_qp_offset=-2 / threads=6 / sliced_threads=0 / nr=0 / decimate=1 / interlaced=0 / bluray_compat=0 / constrained_intra=0 / bframes=9 / b_pyramid=2 / b_adapt=2 / b_bias=0 / direct=1 / weightb=1 / open_gop=0 / weightp=2 / keyint=240 / keyint_min=23 / scenecut=40 / intra_refresh=0 / rc_lookahead=40 / rc=2pass / mbtree=1 / bitrate=5423 / ratetol=1.0 / qcomp=0.60 / qpmin=0 / qpmax=69 / qpstep=4 / cplxblur=20.0 / qblur=0.5 / ip_ratio=1.40 / aq=1:1.00
Language : English
Default : Yes
Forced : Yes
Audio #2
ID : 2
Format : MPEG Audio
Format version : Version 1
Format profile : Layer 3
Mode : Joint stereo
Mode extension : MS Stereo
Codec ID : A_MPEG/L3
Codec ID/Hint : MP3
Duration : 7mn 59s
Bit rate mode : Constant
Bit rate : 128 Kbps
Channel(s) : 2 channels
Sampling rate : 48.0 KHz
Compression mode : Lossy
Stream size : 7.32 MiB (2%)
Title : Surviving Sid (2008) 720p.Tr_02.A-UKR.[MP3_2.0-192].[HURTOM] by DiGen.mp3
Writing library : LAME3.97
Language : Ukrainian
Default : Yes
Forced : Yes
Audio #3
ID : 3
Format : AC-3
Format/Info : Audio Coding 3
Mode extension : CM (complete main)
Codec ID : A_AC3
Duration : 7mn 59s
Bit rate mode : Constant
Bit rate : 448 Kbps
Channel(s) : 6 channels
Channel positions : Front: L C R, Side: L R, LFE
Sampling rate : 48.0 KHz
Bit depth : 16 bits
Compression mode : Lossy
Stream size : 25.6 MiB (7%)
Title : Surviving Sid (2008) 720p.Tr_02.A-Eng.[AC3_5.1-448].[HURTOM] by DiGen
Language : English
Default : No
Forced : No
Text #4
ID : 4
Format : UTF-8
Codec ID : S_TEXT/UTF8
Codec ID/Info : UTF-8 Plain Text
Title : Surviving Sid (2008) 720p.Tr_03.Sub-UKR.srt.[HURTOM] by DiGen
Language : Ukrainian
Default : Yes
Forced : Yes
Text #5
ID : 5
Format : UTF-8
Codec ID : S_TEXT/UTF8
Codec ID/Info : UTF-8 Plain Text
Title : Surviving Sid (2008) 720p.Tr_04.Sub-Eng.srt.[HURTOM] by DiGen
Language : English
Default : No
Forced : No
Світлини

SOURCE VS RIP


Kralechka за субтитри
yuraflash & imonko за україномовну доріжку та відповідно підготовку тексту до неї
Скрат та континентальний перелом / Scrat's Continental Crack Up (2010) 720p Eng | Sub Ukr:

Скрат та континентальний перелом / Scrat's Continental Crack Up (2010) 720p Eng | Sub Ukr

Льодовиковий період: Трилогія / Ice Age: Trilogy (2002-2009) 720p Ukr/Eng | Sub Ukr/Eng + Bonus


Жанр: дитячий, комедія, сімейний
Країна: США



Кіностудія / кінокомпанія: Blue Sky Studios
Режисер: Стів Мартіно / Steve Martino, Майк Трумеєр / Mike Thurmeier
Актори: Білка

Сюжет:
Про те, як утворились континенти.
Короткометражка, що передує четвертій частині


Тривалість: 00:02:40
Якість:
Відео:
кодек:
розмір кадру: 1280 х 528
бітрейт: 5423 кб/с

Аудіо:
мова: англійська
переклад: оригінал
кодек: AАC3 5.1
бітрейт: 448 кб/с (максимум 708 кб/с), змінний

Субтитри:
мова: українська (власна робота)
тип: програмні (м'які)
формат: *.srt
x.264 log:

-[Information] Log for job94 (video, T1_Video - .avs -> )
--[Information] [31.05.2012 7:14:38] Started handling job
--[Information] [31.05.2012 7:14:38] Preprocessing
-[NoImage] LoadPlugin("C:\Program Files\MeGUI_2112_x86\tools\dgavcindex\DGAVCDecode.dll")
-[NoImage] AVCSource("D:\Films\robota\ICE_AGE_Bonus\Scrat's Continental Crack Up 1080p\T1_Video - .dga")
-[NoImage] #deinterlace
-[NoImage] #crop
-[NoImage] Lanczos4Resize(1280,528) # Lanczos4 (Sharp)
-[NoImage] #denoise
--[Information] [31.05.2012 7:14:38] Avisynth input script
--[Information] [31.05.2012 7:14:40] Job commandline: "C:\Program Files\MeGUI_2112_x86\tools\\.exe" --level 4.1 --pass 1 --bitrate 5423 --stats "D:\Films\robota\ICE_AGE_2\122.stats" --deblock -3:-3 --keyint 240 --bframes 9 --b-adapt 2 --ref 8 --merange 32 --me umh --subme 11 --trellis 2 --sar 1:1 --output NUL "D:\Films\robota\ICE_AGE_Bonus\Scrat's Continental Crack Up 1080p\T1_Video - .avs"
--[Information] [31.05.2012 7:14:41] Encoding started
--[Information] [31.05.2012 7:17:39] Standard output stream
-[NoImage] avs [info]: 1280x528p 1:1 @ 24000/1001 fps (cfr)
-[NoImage] [info]: using SAR=1/1
-[NoImage] [info]: using cpu capabilities: MMX2 SSE2Fast SSSE3 FastShuffle SSE4.2 AVX
-[NoImage] [info]: profile Main, level 4.1
-[NoImage]
-[NoImage] [info]: frame I:42 Avg QP: 7.50 size:151035
-[NoImage] [info]: frame P:1325 Avg QP:12.24 size: 44236
-[NoImage] [info]: frame B:2476 Avg QP:14.78 size: 17851
-[NoImage] [info]: consecutive B-frames: 12.2% 10.5% 9.1% 47.3% 4.4% 7.3% 2.9% 2.7% 1.4% 2.1%
-[NoImage] [info]: mb I I16..4: 31.2% 0.0% 68.8%
-[NoImage] [info]: mb P I16..4: 34.3% 0.0% 0.0% P16..4: 49.9% 0.0% 0.0% 0.0% 0.0% skip:15.8%
-[NoImage] [info]: mb B I16..4: 6.1% 0.0% 0.0% B16..8: 31.8% 0.0% 0.0% direct:17.5% skip:44.6% L0:29.1% L1:36.5% BI:34.3%
-[NoImage] [info]: final ratefactor: 13.00
-[NoImage] [info]: coded y,uvDC,uvAC intra: 64.4% 68.3% 48.4% inter: 30.4% 30.6% 9.5%
-[NoImage] [info]: i16 v,h,dc,p: 33% 32% 21% 14%
-[NoImage] [info]: i4 v,h,dc,ddl,ddr,vr,hd,vl,hu: 16% 25% 11% 7% 8% 7% 9% 7% 11%
-[NoImage] [info]: i8c dc,h,v,p: 50% 26% 16% 8%
-[NoImage] [info]: Weighted P-Frames: Y:3.6% UV:2.4%
-[NoImage] [info]: kb/s:5448.03
-[NoImage] encoded 3843 frames, 22.03 fps, 5448.03 kb/s
--[Information] [31.05.2012 7:17:39] Standard error stream
--[Information] [31.05.2012 7:17:39] Postprocessing
---[Information] Deleting intermediate files
--[Information] [31.05.2012 7:17:39] Job completed
-[Information] Log for job95 (video, T1_Video - .avs -> T1_Video - .)
--[Information] [31.05.2012 7:17:39] Started handling job
--[Information] [31.05.2012 7:17:39] Preprocessing
-[NoImage] LoadPlugin("C:\Program Files\MeGUI_2112_x86\tools\dgavcindex\DGAVCDecode.dll")
-[NoImage] AVCSource("D:\Films\robota\ICE_AGE_Bonus\Scrat's Continental Crack Up 1080p\T1_Video - .dga")
-[NoImage] #deinterlace
-[NoImage] #crop
-[NoImage] Lanczos4Resize(1280,528) # Lanczos4 (Sharp)
-[NoImage] #denoise
--[Information] [31.05.2012 7:17:39] Avisynth input script
--[Information] [31.05.2012 7:17:41] Job commandline: "C:\Program Files\MeGUI_2112_x86\tools\\.exe" --level 4.1 --pass 2 --bitrate 5423 --stats "D:\Films\robota\ICE_AGE_2\122.stats" --deblock -3:-3 --keyint 240 --bframes 9 --b-adapt 2 --ref 8 --merange 32 --me umh --subme 11 --trellis 2 --sar 1:1 --output "D:\Films\robota\ICE_AGE_Bonus\Scrat's Continental Crack Up 1080p\T1_Video - ." "D:\Films\robota\ICE_AGE_Bonus\Scrat's Continental Crack Up 1080p\T1_Video - .avs"
--[Information] [31.05.2012 7:17:41] Encoding started
--[Information] [31.05.2012 7:38:26] Standard output stream
-[NoImage] avs [info]: 1280x528p 1:1 @ 24000/1001 fps (cfr)
-[NoImage] [info]: using SAR=1/1
-[NoImage] [info]: using cpu capabilities: MMX2 SSE2Fast SSSE3 FastShuffle SSE4.2 AVX
-[NoImage] [info]: profile High, level 4.1
-[NoImage]
-[NoImage] [info]: frame I:42 Avg QP: 9.01 size:160028
-[NoImage] [info]: frame P:1325 Avg QP:12.31 size: 45103
-[NoImage] [info]: frame B:2476 Avg QP:15.78 size: 17186
-[NoImage] [info]: consecutive B-frames: 12.2% 10.5% 9.1% 47.3% 4.4% 7.3% 2.9% 2.7% 1.4% 2.1%
-[NoImage] [info]: mb I I16..4: 26.2% 32.4% 41.3%
-[NoImage] [info]: mb P I16..4: 5.1% 24.7% 7.4% P16..4: 16.4% 18.9% 11.1% 0.0% 0.0% skip:16.3%
-[NoImage] [info]: mb B I16..4: 1.1% 6.6% 1.4% B16..8: 21.8% 17.3% 4.4% direct: 6.2% skip:41.3% L0:38.3% L1:41.6% BI:20.1%
-[NoImage] [info]: 8x8 transform intra:66.3% inter:43.1%
-[NoImage] [info]: coded y,uvDC,uvAC intra: 71.4% 75.4% 61.1% inter: 24.0% 27.3% 11.8%
-[NoImage] [info]: i16 v,h,dc,p: 56% 19% 5% 20%
-[NoImage] [info]: i8 v,h,dc,ddl,ddr,vr,hd,vl,hu: 11% 17% 14% 8% 8% 7% 11% 9% 15%
-[NoImage] [info]: i4 v,h,dc,ddl,ddr,vr,hd,vl,hu: 18% 20% 15% 5% 9% 7% 9% 6% 11%
-[NoImage] [info]: i8c dc,h,v,p: 31% 41% 15% 13%
-[NoImage] [info]: Weighted P-Frames: Y:3.6% UV:2.4%
-[NoImage] [info]: ref P L0: 63.8% 8.6% 12.7% 5.4% 3.2% 2.6% 2.0% 1.4% 0.3% 0.0%
-[NoImage] [info]: ref B L0: 83.0% 9.1% 3.7% 1.7% 1.4% 0.8% 0.3%
-[NoImage] [info]: ref B L1: 94.9% 5.1%
-[NoImage] [info]: kb/s:5441.99
-[NoImage] encoded 3843 frames, 3.09 fps, 5442.02 kb/s
--[Information] [31.05.2012 7:38:26] Standard error stream
--[Information] Final statistics
---[Information] [31.05.2012 7:38:29] Video Bitrate Desired: 5423 kbit/s
---[Information] [31.05.2012 7:38:29] Video Bitrate Obtained (approximate): 5443 kbit/s
--[Information] [31.05.2012 7:38:29] Info
---[Information] File: D:\Films\robota\ICE_AGE_Bonus\Scrat's Continental Crack Up 1080p\T1_Video - .
-[Information] Format:
-[Information] FormatString:
-[Information] FileSize: 109064757
-[Information] PlayTime: 00:02:40.285
---[Information] General
-[Information] ID: 1
-[Information] StreamOrder: 0
-[Information] Width: 1280
-[Information] Height: 528
-[Information] FrameCount: 3843
-[Information] FrameRate: 23.976
-[Information] ScanType: Progressive
-[Information] Codec: V_MPEG4/ISO/AVC
-[Information] CodecString: AVC
-[Information] Format: AVC
-[Information] AspectRatio: 2.424
-[Information] AspectRatioString: 2.40:1
-[Information] Delay: 0
-[Information] Title:
-[Information] Language: en
-[Information] LanguageString: English
---[Information] Video
--[Information] [31.05.2012 7:38:29] Postprocessing
-[Information] [31.05.2012 7:38:29] Successfully deleted D:\Films\robota\ICE_AGE_2\122.stats
---[Information] Deleting intermediate files
--[Information] [31.05.2012 7:38:29] Job completed
Info

General
Unique ID : 236730828578906123637333996979515510253 (0xB218B2FB9FA55B7AA6983CFFCCC74DED)
Format :
Format version : Version 2
File size : 113 MiB
Duration : 2mn 40s
Overall bit rate : 5 935 Kbps
Encoded date : UTC 2012-06-03 20:18:27
Writing application : mkvmerge v5.2.1 ('A Far Off Place') built on Jan 2 2012 23:21:10
Writing library : libebml v1.2.3 + libmatroska v1.3.0
Video #1
ID : 1
Format : AVC
Format/Info : Advanced Video Codec
Format profile : [email protected]
Format settings, CABAC : Yes
Format settings, ReFrames : 8 frames
Codec ID : V_MPEG4/ISO/AVC
Duration : 2mn 40s
Nominal bit rate : 5 423 Kbps
Width : 1 280 pixels
Height : 528 pixels
Display aspect ratio : 2.40:1
Frame rate : 23.976 fps
Color space : YUV
Chroma subsampling : 4:2:0
Bit depth : 8 bits
Scan type : Progressive
Bits/(Pixel*Frame) : 0.335
Title : Scrat's Continental Crack-Up (2010) 720p.Tr_01.Video.[HURTOM] by DiGen
Writing library : core 120 r2164 da19765
Encoding settings : cabac=1 / ref=8 / deblock=1:-3:-3 / analyse=0x3:0x113 / me=umh / subme=11 / psy=1 / psy_rd=1.00:0.00 / mixed_ref=1 / me_range=32 / chroma_me=1 / trellis=2 / 8x8dct=1 / cqm=0 / deadzone=21,11 / fast_pskip=1 / chroma_qp_offset=-2 / threads=6 / sliced_threads=0 / nr=0 / decimate=1 / interlaced=0 / bluray_compat=0 / constrained_intra=0 / bframes=9 / b_pyramid=2 / b_adapt=2 / b_bias=0 / direct=1 / weightb=1 / open_gop=0 / weightp=2 / keyint=240 / keyint_min=23 / scenecut=40 / intra_refresh=0 / rc_lookahead=40 / rc=2pass / mbtree=1 / bitrate=5423 / ratetol=1.0 / qcomp=0.60 / qpmin=0 / qpmax=69 / qpstep=4 / cplxblur=20.0 / qblur=0.5 / ip_ratio=1.40 / aq=1:1.00
Language : English
Default : Yes
Forced : Yes
Audio #2
ID : 2
Format :
Format/Info : Advanced Audio Codec
Format profile : LC
Codec ID : A_AAC
Duration : 2mn 40s
Channel(s) : 6 channels
Channel positions : Front: L C R, Side: L R, LFE
Sampling rate : 48.0 KHz
Compression mode : Lossy
Title : Scrat's Continental Crack-Up (2010) 720p.Tr_02.A-Eng.[AAC_2.0-448].[HURTOM] by DiGen
Language : English
Default : Yes
Forced : Yes
Text #3
ID : 3
Format : UTF-8
Codec ID : S_TEXT/UTF8
Codec ID/Info : UTF-8 Plain Text
Title : Scrat's Continental Crack-Up (2010) 720p.Tr_03.Sub-UKR.srt.[HURTOM] by DiGen
Language : Ukrainian
Default : Yes
Forced : Yes
Світлини

SOURCE VS RIP


Скрат та континентальний перелом: Частина 2 / Scrat's Continental Crack-Up: Part 2 (2011) 720p Eng | Sub Ukr:

Скрат та континентальний перелом: Частина 2 / Scrat's Continental Crack-Up: Part 2 (2011) 720p Eng | Sub Ukr

Льодовиковий період: Трилогія / Ice Age: Trilogy (2002-2009) 720p Ukr/Eng | Sub Ukr/Eng + Bonus


Жанр: анімація, дитячий, комедія, сімейний
Країна: США



Кіностудія / кінокомпанія: Blue Sky Studios
Режисер: Стів Мартіно / Steve Martino
Актори: Білка

Сюжет:
Продовження розповіді про життя білки після континентального перелому


Тривалість: 00:02:34
Якість:
Відео:
кодек:
розмір кадру: 1280 х 544
бітрейт: 5423 кб/с

Аудіо:
мова: англійська
переклад: оригінал
кодек: 2.0
бітрейт: 96 кб/с

Субтитри:
мова: українська (власна робота)
тип: програмні (м'які)
формат: *.srt
x.264 log:

-[Information] Log for job101 (video, T1_Video - .avs -> )
--[Information] [03.06.2012 21:13:38] Started handling job
--[Information] [03.06.2012 21:13:38] Preprocessing
--[Information] [03.06.2012 21:13:38] Avisynth input script
---[NoImage] LoadPlugin("C:\Program Files\MeGUI_2112_x86\tools\dgavcindex\DGAVCDecode.dll")
---[NoImage] AVCSource("D:\Films\robota\ICE_AGE_Bonus\S CCU2\T1_Video - .dga")
---[NoImage] #deinterlace
---[NoImage] crop( 2, 4, 0, -2)
---[NoImage] LanczosResize(1280,544) # Lanczos (Sharp)
---[NoImage] #denoise
--[Information] [03.06.2012 21:13:41] Job commandline: "C:\Program Files\MeGUI_2112_x86\tools\\.exe" --level 4.1 --pass 1 --bitrate 5423 --stats "D:\Films\robota\ICE_AGE_2\122.stats" --deblock -3:-3 --keyint 240 --bframes 8 --b-adapt 2 --ref 8 --merange 24 --me umh --subme 11 --trellis 2 --sar 1:1 --output NUL "D:\Films\robota\ICE_AGE_Bonus\S CCU2\T1_Video - .avs"
--[Information] [03.06.2012 21:13:41] Encoding started
--[Information] [03.06.2012 21:16:05] Standard output stream
--[Information] [03.06.2012 21:16:05] Standard error stream
---[NoImage] avs [info]: 1280x544p 1:1 @ 24000/1001 fps (cfr)
---[NoImage] [info]: using SAR=1/1
---[NoImage] [info]: using cpu capabilities: MMX2 SSE2Fast SSSE3 FastShuffle SSE4.2 AVX
---[NoImage] [info]: profile Main, level 4.1
---[NoImage]
---[NoImage] [info]: frame I:28 Avg QP: 8.91 size:105284
---[NoImage] [info]: frame P:1256 Avg QP:13.14 size: 40401
---[NoImage] [info]: frame B:2422 Avg QP:15.41 size: 17118
---[NoImage] [info]: consecutive B-frames: 11.7% 6.4% 7.7% 56.8% 5.3% 8.9% 1.5% 1.5% 0.2%
---[NoImage] [info]: mb I I16..4: 39.2% 0.0% 60.8%
---[NoImage] [info]: mb P I16..4: 27.3% 0.0% 0.0% P16..4: 42.1% 0.0% 0.0% 0.0% 0.0% skip:30.6%
---[NoImage] [info]: mb B I16..4: 5.0% 0.0% 0.0% B16..8: 28.5% 0.0% 0.0% direct:17.2% skip:49.3% L0:27.3% L1:34.2% BI:38.6%
---[NoImage] [info]: final ratefactor: 12.99
---[NoImage] [info]: coded y,uvDC,uvAC intra: 72.3% 75.4% 57.5% inter: 26.2% 23.3% 7.3%
---[NoImage] [info]: i16 v,h,dc,p: 28% 39% 20% 13%
---[NoImage] [info]: i4 v,h,dc,ddl,ddr,vr,hd,vl,hu: 20% 31% 11% 6% 6% 6% 7% 6% 8%
---[NoImage] [info]: i8c dc,h,v,p: 44% 31% 17% 8%
---[NoImage] [info]: Weighted P-Frames: Y:4.7% UV:3.1%
---[NoImage] [info]: kb/s:4924.61
---[NoImage] encoded 3706 frames, 26.03 fps, 4924.61 kb/s
--[Information] [03.06.2012 21:16:06] Postprocessing
---[Information] Deleting intermediate files
--[Information] [03.06.2012 21:16:06] Job completed
-[Information] Log for job102 (video, T1_Video - .avs -> T1_Video - .)
--[Information] [03.06.2012 21:16:06] Started handling job
--[Information] [03.06.2012 21:16:06] Preprocessing
--[Information] [03.06.2012 21:16:06] Avisynth input script
---[NoImage] LoadPlugin("C:\Program Files\MeGUI_2112_x86\tools\dgavcindex\DGAVCDecode.dll")
---[NoImage] AVCSource("D:\Films\robota\ICE_AGE_Bonus\S CCU2\T1_Video - .dga")
---[NoImage] #deinterlace
---[NoImage] crop( 2, 4, 0, -2)
---[NoImage] LanczosResize(1280,544) # Lanczos (Sharp)
---[NoImage] #denoise
--[Information] [03.06.2012 21:16:08] Job commandline: "C:\Program Files\MeGUI_2112_x86\tools\\.exe" --level 4.1 --pass 2 --bitrate 5423 --stats "D:\Films\robota\ICE_AGE_2\122.stats" --deblock -3:-3 --keyint 240 --bframes 8 --b-adapt 2 --ref 8 --merange 24 --me umh --subme 11 --trellis 2 --sar 1:1 --output "D:\Films\robota\ICE_AGE_Bonus\Скрат и континентальный излом 2 (1080) [rutracker.org]\T1_Video - ." "D:\Films\robota\ICE_AGE_Bonus\S CCU2\T1_Video - .avs"
--[Information] [03.06.2012 21:16:08] Encoding started
--[Information] [03.06.2012 21:34:04] Standard output stream
--[Information] [03.06.2012 21:34:04] Standard error stream
---[NoImage] avs [info]: 1280x544p 1:1 @ 24000/1001 fps (cfr)
---[NoImage] [info]: using SAR=1/1
---[NoImage] [info]: using cpu capabilities: MMX2 SSE2Fast SSSE3 FastShuffle SSE4.2 AVX
---[NoImage] [info]: profile High, level 4.1
---[NoImage]
---[NoImage] [info]: frame I:28 Avg QP: 9.97 size:120115
---[NoImage] [info]: frame P:1256 Avg QP:13.62 size: 44263
---[NoImage] [info]: frame B:2422 Avg QP:17.05 size: 18933
---[NoImage] [info]: consecutive B-frames: 11.7% 6.4% 7.7% 56.8% 5.3% 8.9% 1.5% 1.5% 0.2%
---[NoImage] [info]: mb I I16..4: 32.1% 31.3% 36.6%
---[NoImage] [info]: mb P I16..4: 2.9% 19.9% 7.0% P16..4: 14.2% 16.4% 9.2% 0.0% 0.0% skip:30.3%
---[NoImage] [info]: mb B I16..4: 0.8% 4.7% 1.3% B16..8: 20.0% 16.7% 4.6% direct: 7.9% skip:44.0% L0:35.3% L1:40.1% BI:24.6%
---[NoImage] [info]: 8x8 transform intra:65.5% inter:46.7%
---[NoImage] [info]: coded y,uvDC,uvAC intra: 75.5% 82.4% 71.6% inter: 23.5% 22.4% 9.7%
---[NoImage] [info]: i16 v,h,dc,p: 45% 26% 5% 25%
---[NoImage] [info]: i8 v,h,dc,ddl,ddr,vr,hd,vl,hu: 11% 23% 12% 7% 8% 8% 9% 9% 13%
---[NoImage] [info]: i4 v,h,dc,ddl,ddr,vr,hd,vl,hu: 15% 31% 12% 4% 7% 6% 8% 5% 10%
---[NoImage] [info]: i8c dc,h,v,p: 30% 40% 17% 13%
---[NoImage] [info]: Weighted P-Frames: Y:4.7% UV:3.1%
---[NoImage] [info]: ref P L0: 62.1% 9.0% 14.2% 5.0% 3.4% 2.5% 2.1% 1.5% 0.3% 0.0%
---[NoImage] [info]: ref B L0: 86.8% 7.1% 2.9% 1.4% 1.0% 0.6% 0.3%
---[NoImage] [info]: ref B L1: 96.9% 3.1%
---[NoImage] [info]: kb/s:5424.73
---[NoImage] encoded 3706 frames, 3.45 fps, 5424.77 kb/s
--[Information] Final statistics
---[Information] [03.06.2012 21:34:06] Video Bitrate Desired: 5423 kbit/s
---[Information] [03.06.2012 21:34:06] Video Bitrate Obtained (approximate): 5426 kbit/s
--[Information] [03.06.2012 21:34:06] Info
---[Information] File: D:\Films\robota\ICE_AGE_Bonus\S CCU2 (1080)\T1_Video - .
---[Information] General
----[Information] Format:
----[Information] FormatString:
----[Information] FileSize: 104843356
----[Information] PlayTime: 00:02:34.571
---[Information] Video
----[Information] ID: 1
----[Information] StreamOrder: 0
----[Information] Width: 1280
----[Information] Height: 544
----[Information] FrameCount: 3706
----[Information] FrameRate: 23.976
----[Information] ScanType: Progressive
----[Information] Codec: V_MPEG4/ISO/AVC
----[Information] CodecString: AVC
----[Information] Format: AVC
----[Information] AspectRatio: 2.353
----[Information] AspectRatioString: 2.35:1
----[Information] Delay: 0
----[Information] Title:
----[Information] Language: en
----[Information] LanguageString: English
--[Information] [03.06.2012 21:34:06] Postprocessing
---[Information] Deleting intermediate files
----[Information] [03.06.2012 21:34:06] Successfully deleted D:\Films\robota\ICE_AGE_2\122.stats
--[Information] [03.06.2012 21:34:06] Job completed
Info

General
Unique ID : 225151759948001077635821221651383810799 (0xA962A6D2A28BC61C858E94D458C37AEF
Format :
Format version : Version 2
File size : 102 MiB
Duration : 2mn 34s
Overall bit rate : 5 522 Kbps
Encoded date : UTC 2012-06-03 19:24:39
Writing application : mkvmerge v5.2.1 ('A Far Off Place') built on Jan 2 2012 23:21:10
Writing library : libebml v1.2.3 + libmatroska v1.3.0
Video #1
ID : 1
Format : AVC
Format/Info : Advanced Video Codec
Format profile : [email protected]
Format settings, CABAC : Yes
Format settings, ReFrames : 8 frames
Codec ID : V_MPEG4/ISO/AVC
Duration : 2mn 34s
Nominal bit rate : 5 423 Kbps
Width : 1 280 pixels
Height : 544 pixels
Display aspect ratio : 2.35:1
Frame rate : 23.976 fps
Color space : YUV
Chroma subsampling : 4:2:0
Bit depth : 8 bits
Scan type : Progressive
Bits/(Pixel*Frame) : 0.325
Title : Scrat's Continental Crack-Up (2011) 720p.Tr_01.Video.[HURTOM] by DiGen
Writing library : core 120 r2164 da19765
Encoding settings : cabac=1 / ref=8 / deblock=1:-3:-3 / analyse=0x3:0x113 / me=umh / subme=11 / psy=1 / psy_rd=1.00:0.00 / mixed_ref=1 / me_range=24 / chroma_me=1 / trellis=2 / 8x8dct=1 / cqm=0 / deadzone=21,11 / fast_pskip=1 / chroma_qp_offset=-2 / threads=6 / sliced_threads=0 / nr=0 / decimate=1 / interlaced=0 / bluray_compat=0 / constrained_intra=0 / bframes=8 / b_pyramid=2 / b_adapt=2 / b_bias=0 / direct=1 / weightb=1 / open_gop=0 / weightp=2 / keyint=240 / keyint_min=23 / scenecut=40 / intra_refresh=0 / rc_lookahead=40 / rc=2pass / mbtree=1 / bitrate=5423 / ratetol=1.0 / qcomp=0.60 / qpmin=0 / qpmax=69 / qpstep=4 / cplxblur=20.0 / qblur=0.5 / ip_ratio=1.40 / aq=1:1.00
Language : English
Default : Yes
Forced : Yes
Audio #2
ID : 2
Format :
Format/Info : Advanced Audio Codec
Format profile : HE- / LC
Codec ID : A_AAC
Duration : 2mn 34s
Channel(s) : 2 channels
Channel positions : Front: L R
Sampling rate : 88.2 KHz / 44.1 KHz
Compression mode : Lossy
Title : Scrat's Continental Crack-Up (2011) 720p.Tr_02.A-Eng.[AAC_2.0-96].[HURTOM] by DiGen
Language : English
Default : Yes
Forced : Yes
Text #3
ID : 3
Format : UTF-8
Codec ID : S_TEXT/UTF8
Codec ID/Info : UTF-8 Plain Text
Title : Scrat's Continental Crack-Up (2011) 720p.Tr_03.Sub-UKR.srt.[HURTOM] by DiGen
Language : Ukrainian
Default : Yes
Forced : Yes
Світлини

SOURCE VS RIP


Джерело: Реліз-група &
Особиста оцінка: 10 - без зайвих вагань рекомендую всім!

Не забуваємо клацати "Дякую"
Мої наступні релізи:
HD 1080p/720p:

01.
02.
03. Робокоп 1,2,3 (1987,1990,1993) 720p
04.
05. Shichinin no samura (1954) 720р
06. Autumn in New York 720р
08.
09. Some Like It Hot (1959) Blu-Ray - в процесі
10. Смертельні перегони 2000року (1975) 1080р - готове відео, лише треба саби
11. Смертельні перегони 1,2/Death Race 1,2(2008/2010) 720p
12. Святий/The Saint 1080p - готовий, лише треба звук підігнати та оформити
13. Boondock Saints.1999.BD.Rip.720p - якщо буде укр.доріжка
14. Boondock Saints II.All Saints Day.BD.Rip.720p - якщо буде укр.доріжка
15. Rain.Man.1988.720p
16. Flashbacks of a Fool (2008) 720p - готовий, лише треба звук підігнати та оформити
17. Миротворець / The Peacemaker (1997) 720р
18. Blind Fury (1989) 1080і - готовий, лише треба звук підігнати та оформити
19. Requiem for a Dream (2000) 720р

:

01. Формула 51/Formula 51
02. Коефіцієнт інтелекту/IQ (1994) - /720p


Срібний реліз (на рейтинг впливає 50% завантаженого)
 Трекер:    Зареєстрований   

Завантажити / скачати мультфільм українською



відео для новачків



 Зареєстрований:   2012-07-11 23:39
 Розмір:   15.49 GB 
 Оцінка мультфільму:   9.9/10 (Голосів: 71)
   
St.Bogush 
VIP


З нами з: 03.04.09
Востаннє: 20.08.17
Повідомлень: 790

2012-05-14 16:14  
Може краще для третьої частини взяти доріжку з Блю-рея 448 кб/с ?
abodnya 
Відео Гуртом - фільмокрай
Відео Гуртом - фільмокрай


З нами з: 02.11.08
Востаннє: 18.08.17
Повідомлень: 5959

2012-05-14 16:19  
Додайте також новорічну короткометражку з двома дубляжами
wolverine 
VIP


З нами з: 26.09.09
Востаннє: 19.08.17
Повідомлень: 326

2012-05-17 21:00  
DiGen, молодець, так тримати) І наперед: народе, не "нападайте" на автора зі своїми претензіями або бажаннями, він для усіх вас старається) Ще раз дякую
DiGen 
Модератор HD та координатор Команди HD
Модератор HD та координатор Команди HD


З нами з: 12.11.09
Востаннє: 24.06.13
Повідомлень: 1451

2012-06-07 10:40  
!!! УВАГА !!!
Поки що знайдено 5 бонусних короткометражок. Зараз завершується робота з перекладу до останньої (замовив у професійного перекладача). Якщо хтось знає, що їх є більше - напишіть мені в ПП.

DiGen 
Модератор HD та координатор Команди HD
Модератор HD та координатор Команди HD


З нами з: 12.11.09
Востаннє: 24.06.13
Повідомлень: 1451

2012-07-11 14:05  
Ніби все...
Якщо є якісь огріхи в оформленні чи ін. - пишіть в ПП.

xfsthe 
Оцифрування книг Гуртом
Оцифрування книг Гуртом


З нами з: 13.02.11
Востаннє: 16.08.17
Повідомлень: 279

2012-07-11 15:11  
DiGen написано:
Сід, посібник по виживанню / Surviving Sid (2008) 720p Eng | Sub Ukr/Eng

є одноголоска від yuraflash ТУТ

karvai0 
Відео Гуртом - запис з ТБ
Відео Гуртом - запис з ТБ


З нами з: 18.01.10
Востаннє: 11.08.17
Повідомлень: 3677

2012-07-11 15:21  
для порівняння
DiGen написано:
SOURCE VS RIP

потрібно брати одинакові стоп-кадри, а не різні так як в тебе

DiGen 
Модератор HD та координатор Команди HD
Модератор HD та координатор Команди HD


З нами з: 12.11.09
Востаннє: 24.06.13
Повідомлень: 1451

2012-07-11 17:52  
karvai0
Я брав покадрово. В КМПлеєрі є можливість перейти до конкретного кадру і зробити скріншот.

Додано через 3 хвилини 20 секунд:

xfsthe
Я почав робити цей реліз два міс тому. Тоді пошук не дав результату

Додано через 3 хвилини 47 секунд:

Я постараюсь до кінця тиждня оновити реліз.

karvai0 
Відео Гуртом - запис з ТБ
Відео Гуртом - запис з ТБ


З нами з: 18.01.10
Востаннє: 11.08.17
Повідомлень: 3677

2012-07-11 18:20  
DiGen написано:
Я почав робити цей реліз два міс тому.

))) цей реліз ще був на початку 2010

DiGen 
Модератор HD та координатор Команди HD
Модератор HD та координатор Команди HD


З нами з: 12.11.09
Востаннє: 24.06.13
Повідомлень: 1451

2012-07-11 20:50  
karvai0
Я ж тому і написав, що я вбив у пошук і результату не отримав. Але сьогодні вночі перероблю.

ValicV 
Свій


З нами з: 19.01.10
Востаннє: 20.08.17
Повідомлень: 87

2012-07-11 22:29  
А золото за континентальний труд буде чи ні? Wink (1)
DiGen 
Модератор HD та координатор Команди HD
Модератор HD та координатор Команди HD


З нами з: 12.11.09
Востаннє: 24.06.13
Повідомлень: 1451

2012-07-11 23:42  
!!!Торент оновлено. Прохання перезавантажити. Вибачте за незручності!!!
Зміни: додана Україномовна доріжка до Виживання Сіда

Konfucius 
Управління
Управління


З нами з: 30.09.07
Востаннє: 20.08.17
Повідомлень: 4940

2012-07-13 16:24  
Це я називаю реліз Happy Трилогія з коментарями, бонуси, власні ріпи...
braveboy 
Відео Гуртом - команда HD
Відео Гуртом - команда HD


З нами з: 15.06.10
Востаннє: 13.08.17
Повідомлень: 949

2012-07-13 16:40  
в третій частині прибери з опису
DiGen написано:

)
---[NoImage] AVCSource(

DiGen 
Модератор HD та координатор Команди HD
Модератор HD та координатор Команди HD


З нами з: 12.11.09
Востаннє: 24.06.13
Повідомлень: 1451

2012-07-13 18:01  
braveboy
Дякую. Приберу.

Додано через 2 хвилини 33 секунди:

Konfucius
Дякую.

oleg.plavkov 
Відео Гуртом - фільмокрай
Відео Гуртом - фільмокрай


З нами з: 04.01.12
Востаннє: 20.08.17
Повідомлень: 304

2012-10-12 19:20  
DiGen написано:
Сsд

Виправ.

shadowoflight 
Новенький


З нами з: 22.10.12
Востаннє: 23.07.17
Повідомлень: 4

2012-11-11 21:51  
Дякую)
fooks 
Поважний учасник


З нами з: 17.10.11
Востаннє: 05.08.17
Повідомлень: 237

2013-01-07 21:04  
сьогодні другу част. по 1+1 показували з дубляжем)
Did Kokos 
VIP


З нами з: 27.05.13
Востаннє: 20.08.17
Повідомлень: 351

2013-06-17 01:16  
Скрат та континентальний перелом

тип: програмні (м'яквласна роботаі)

BMK12 
Відео Гуртом - підтримка та поширення
Відео Гуртом - підтримка та поширення


З нами з: 13.04.09
Востаннє: 20.08.17
Повідомлень: 3110

2013-11-16 11:40  
Сюди б ще 4-ту частину і буде повна колекція.

Додано через 1 хвилину 26 секунд:

А ще була б класна квадрологія в 1080р.

leroykendall 
Модератор HD


З нами з: 03.01.11
Востаннє: 04.08.17
Повідомлень: 750

2013-11-17 17:30  
BMK12 написано:
Сюди б ще 4-ту частину

Ну це наврядчи. Релізер вже 5 місяців взагалі на толоці не з'являвся.
DiGen написано:
Востаннє: 24.06.13

BMK12 
Відео Гуртом - підтримка та поширення
Відео Гуртом - підтримка та поширення


З нами з: 13.04.09
Востаннє: 20.08.17
Повідомлень: 3110

2013-11-18 00:04  
leroykendall
Нда... Сподіваюсь нічого надзвичайного з релізером не трапилось.

Отже, на квадрологію поки немає шансів?

leroykendall 
Модератор HD


З нами з: 03.01.11
Востаннє: 04.08.17
Повідомлень: 750

2013-11-18 01:03  
BMK12 написано:
Отже, на квадрологію поки немає шансів?

Подивимось. Шанс є завжди. Може хтось і візьметься.

braveboy 
Відео Гуртом - команда HD
Відео Гуртом - команда HD


З нами з: 15.06.10
Востаннє: 13.08.17
Повідомлень: 949

2013-11-18 01:07  
маю всі частини власного кодування 720р
BMK12 
Відео Гуртом - підтримка та поширення
Відео Гуртом - підтримка та поширення


З нами з: 13.04.09
Востаннє: 20.08.17
Повідомлень: 3110

2013-11-18 23:05  
braveboy
Я готовий підтримувати роздачі мультфільмів, особливо "-логії".

stwnik 
Свій


З нами з: 12.08.09
Востаннє: 18.08.17
Повідомлень: 67

2014-08-23 15:31  
Цитата:
Сід, посібник по виживанню
Сюжет:
Сsд веде дітей в похід, та на шляху трапляються різні ситуації. Але діти швидко втомлюються від нескінченних дурниць лінивця і беруть владу в свої руки...

Виправте, будь-ласка!

Ваш часовий пояс: GMT + 2 Години

Нова тема   Відповісти