Історія іграшок 3 : Велика втеча / Toy Story 3 (2010) 1080p Ukr/Eng | Sub Ukr/Eng

Нові коментарі

Нова тема   Відповісти
Автор Повідомлення
ratbol 
Модератор HD


З нами з: 03.02.09
Востаннє: 20.08.17
Повідомлень: 1083

2012-05-13 12:25  
Історія іграшок 3 : Велика втеча / Toy Story 3 (2010) 1080p Ukr/Eng | Sub Ukr/Eng


« No toy gets left behind. »


Жанр: анімація, пригодницький, комедія, сімейний
Країна: США



Кіностудія / кінокомпанія: Pixar Animation Studios, Walt Disney Pictures
Режисер: Лі Анкріч (Lee Unkrich)
Актори: Том Генкс (Tom Hanks), Тім Аллен (Tim Allen), Джоан Кьюсак (Joan Cusack), Нед Бітті (Ned Beatty), Дон Ріклес (Don Rickles), Майкл Кітон (Michael Keaton), Уоллес Шоун (Wallace Shawn), Джон Ратценбергер (John Ratzenberger)

Сюжет:
Енді майже 18 років, йому залишається 3 дні до відправлення в коледж, в той час як його іграшки, в тому числі Вуді і Базз Лайтер, думають про своє майбутнє. Куди закине їх доля? На горище, на смітник або, може бути, в дитячий садок «Сонечко»? Події розвиваються в найнесподіванішому напрямку, і пригоди улюблених героїв продовжуються!


Номінації

Academy Awards, USA (2011)

• Краший анімований фільм року — Перемога
• Краща музика до фільму, оригінальна пісня — Перемога
Ренді Ньюман (Randy Newman) за пісню "We Belong Together"

• Монтаж звуку
• Кращий фільм року
• Кращий адаптований сценарій

Annie Awards (2010)

• Кращий анімований фільм
• Кращий сценарій у анімованому фільмі
• Краща режисура

Golden Globes, USA (2011)

• Кращий мультфільм — Перемога

Grammy Awards (2011)

• Кращий саундтрек — Перемога

London Critics Circle Film Awards (2011)

• Фільм року

MTV Movie Awards (2011)

• Кращий злодій
Нед Бітті (Ned Beatty)
Info
Код:
General
Unique ID                        : 236263041126245648560762619489187907017 (0xB1BE9B47E3D10B8DB343662BBC95C5C9)
Complete name                    : \\mediaserver\D\CARTOONS [UKR]\Toy Story. Trilogy (1995-1999-2010) 1080p [Hurtom]\Toy Story 3 (2010) [Ukr, Eng] 1080p [Hurtom].
Format                           :
Format version                   : Version 2
File size                        : 10.9 GiB
Duration                         : 1h 43mn
Overall bit rate                 : 15.1 Mbps
Movie name                       : Toy Story 3 (2010)
Encoded date                     : UTC 2012-05-13 07:40:10
Writing application              : mkvmerge v5.4.0 ('Piper') built on Mar 10 2012 13:34:39
Writing library                  : libebml v1.2.3 + libmatroska v1.3.0

Video
ID                               : 1
Format                           : AVC
Format/Info                      : Advanced Video Codec
Format profile                   : [email protected]
Format settings, CABAC           : Yes
Format settings, ReFrames        : 4 frames
Codec ID                         : V_MPEG4/ISO/AVC
Duration                         : 1h 43mn
Bit rate                         : 13.0 Mbps
Width                            : 1 920 pixels
Height                           : 1 080 pixels
Display aspect ratio             : 16:9
Frame rate                       : 23.976 fps
Color space                      : YUV
Chroma subsampling               : 4:2:0
Bit depth                        : 8 bits
Scan type                        : Progressive
Bits/(Pixel*Frame)               : 0.261
Stream size                      : 9.12 GiB (84%)
Title                            : 13000 [Kbps]
Writing library                  : core 98 r1629 2e81ce1
Encoding settings                : cabac=1 / ref=4 / deblock=1:-3:-3 / analyse=0x3:0x133 / me=esa / subme=10 / psy=1 / psy_rd=0.80:0.00 / mixed_ref=1 / me_range=48 / chroma_me=1 / trellis=2 / 8x8dct=1 / cqm=0 / deadzone=21,11 / fast_pskip=0 / chroma_qp_offset=-2 / threads=12 / sliced_threads=0 / nr=0 / decimate=0 / interlaced=0 / constrained_intra=0 / bframes=6 / b_pyramid=2 / b_adapt=2 / b_bias=0 / direct=3 / weightb=1 / weightp=2 / keyint=250 / keyint_min=25 / scenecut=40 / intra_refresh=0 / rc=2pass / mbtree=0 / bitrate=13000 / ratetol=1.0 / qcomp=0.60 / qpmin=10 / qpmax=51 / qpstep=4 / cplxblur=20.0 / qblur=0.5 / ip_ratio=1.40 / pb_ratio=1.30 / aq=1:0.65
Language                         : English
Default                          : Yes
Forced                           : No

Audio #1
ID                               : 2
Format                           : AC-3
Format/Info                      : Audio Coding 3
Mode extension                   : CM (complete main)
Codec ID                         : A_AC3
Duration                         : 1h 43mn
Bit rate mode                    : Constant
Bit rate                         : 640 Kbps
Channel(s)                       : 6 channels
Channel positions                : Front: L C R, Side: L R, LFE
Sampling rate                    : 48.0 KHz
Bit depth                        : 16 bits
Compression mode                 : Lossy
Stream size                      : 472 MiB (4%)
Title                            : 5.1-EX [640 Kbps] — дубльований, Blu-ray
Language                         : Ukrainian
Default                          : Yes
Forced                           : No

Audio #2
ID                               : 3
Format                           :
Format/Info                      : Digital Theater Systems
Format profile                   : ES
Codec ID                         : A_DTS
Duration                         : 1h 43mn
Bit rate mode                    : Constant
Bit rate                         : 1 510 Kbps
Channel(s)                       : 6 channels
Channel positions                : Front: L C R, Side: L R, LFE
Sampling rate                    : 48.0 KHz
Bit depth                        : 24 bits
Compression mode                 : Lossy
Stream size                      : 1.09 GiB (10%)
Title                            : 5.1-ES [1536 Kbps] — оригінал
Language                         : English
Default                          : No
Forced                           : No

Text #1
ID                               : 4
Format                           : PGS
Muxing mode                      : zlib
Codec ID                         : S_HDMV/PGS
Codec ID/Info                    : The same subtitle format used on BDs/HD-DVDs
Title                            : Форсовані
Language                         : Ukrainian
Default                          : No
Forced                           : No

Text #2
ID                               : 5
Format                           : PGS
Muxing mode                      : zlib
Codec ID                         : S_HDMV/PGS
Codec ID/Info                    : The same subtitle format used on BDs/HD-DVDs
Title                            : Повні
Language                         : Ukrainian
Default                          : No
Forced                           : No

Text #3
ID                               : 6
Format                           : PGS
Muxing mode                      : zlib
Codec ID                         : S_HDMV/PGS
Codec ID/Info                    : The same subtitle format used on BDs/HD-DVDs
Title                            : Повні
Language                         : English
Default                          : No
Forced                           : No

Text #4
ID                               : 7
Format                           : PGS
Muxing mode                      : zlib
Codec ID                         : S_HDMV/PGS
Codec ID/Info                    : The same subtitle format used on BDs/HD-DVDs
Title                            : Для людей із вадами слуху
Language                         : English
Default                          : No
Forced                           : No

Menu
00:00:00.000                     : en:
00:04:53.543                     : en:
00:06:20.254                     : en:
00:11:37.405                     : en:
00:15:17.166                     : en:
00:18:34.196                     : en:
00:19:23.870                     : en:
00:26:17.116                     : en:
00:28:59.404                     : en:
00:31:47.822                     : en:
00:33:22.333                     : en:
00:35:50.064                     : en:
00:37:30.122                     : en:
00:40:11.325                     : en:
00:41:12.636                     : en:
00:43:37.489                     : en:
00:44:49.269                     : en:
00:48:19.521                     : en:
00:52:28.061                     : en:
00:53:51.895                     : en:
00:57:11.969                     : en:
00:58:20.705                     : en:
01:01:09.999                     : en:
01:02:06.639                     : en:
01:02:57.022                     : en:
01:06:35.032                     : en:
01:11:21.735                     : en:
01:15:57.260                     : en:
01:17:35.817                     : en:
01:19:43.194                     : en:
01:23:01.934                     : en:
01:24:59.594                     : en:
01:28:15.581                     : en:
01:34:18.277                     : en:


Тривалість: 01:42:33
Якість:
Відео:
кодек:
розмір кадру: 1920 х 1080
бітрейт: 13 Мбіт/с

Аудіо # 1:
мова: українська
переклад: професійний дубльований
кодек: 5.1-EX
бітрейт: 640 Кбіт/с

Аудіо # 2:
мова: англійська
переклад: оригінал
кодек: -ES 5.1
бітрейт: 1536 Кбіт/с

Джерело озвучення:


Субтитри # 1-2:
мова: українська (Форсовані, повні)
тип: пререндерні
формат: *.pgs

Субтитри # 3-4:
мова: англійська (Повні, для людей із вадами слуху)
тип: пререндерні
формат: *.pgs


Збережено оригінальні розділи




Особиста оцінка: 9


 Трекер:    Зареєстрований   

Завантажити / скачати мультфільм українською



відео для новачків



 Зареєстрований:   2012-05-13 12:25
 Розмір:   10.89 GB 
 Оцінка мультфільму:   9.7/10 (Голосів: 19)
   
Інші релізи
Ваш часовий пояс: GMT + 2 Години

Нова тема   Відповісти