Черепашки ніндзя / TMNT (2007) 720p Ukr/Eng | Sub Ukr/3xEng

Нові коментарі

Нова тема   Відповісти
Автор Повідомлення
Zeus62 
Відео Гуртом - команда HD
Відео Гуртом - команда HD


З нами з: 29.12.08
Востаннє: 09.07.17
Повідомлень: 330

2012-05-12 15:29  
Черепашки ніндзя / TMNT (2007) 720p Ukr/Eng | Sub Ukr/3xEng

Черепашки ніндзя / TMNT (2007) 720p Ukr/Eng | Sub Ukr/3xEng


Жанр: анімація, екшн, комедія, пригодницький, фантастика
Країна: Гонг-Конг, США



Кіностудія / кінокомпанія: Warner Bros. Pictures, The Weinstein Company, Imagi Studios
Режисер: Кевін Мунро
Актори: Кріс Еванс, Сара Мішель Геллар, Мако, Кевін Сміт, Патрік Стюарт, Зії Чжан, Лоуренс Фішборн, Джеймс Арнольд Тейлор, Нолан Норт, Мікі Келлі, Мітчел Вітфілд

Сюжет:
Після перемоги над Шредером команда черепашок ніндзя розпадається через те, що невизнаний лідер команди Леонардо покидає команду і вирушає у джунглі. А черепашки вже не боряться з мутантами і монстрами, а просто займаються своїми справами, крім Рафаеля. Він удень спить, а вночі бореться зі злочинністю під іменем "Нічний Всевидячий". Але черепашки невдовзі дізнаються, що існує давнє зло, якому уже 3000 років, і це зло... клієнт Ейпріл Максиміліан Вінтерс, який отримав бессмертя через чарівні зірки Кікона. Але насправді він хоче зібрати 13 монстрів, щоб знову стати смертним. Але чи з'єднаються знову черепашки? Чи зрозуміють, що Вінтерс їм не ворог до того, як він стане бессмертним ще на 3000 років?


Тривалість: 01:26:51
Якість:
Відео:
кодек:
розмір кадру: 1280 х 530
бітрейт: 6859 кб/с

Аудіо # 1:
мова: українська
переклад: багатоголосий закадровий |Так Треба Продакшн|
кодек: 5.1
бітрейт: 448 кб/с

Аудіо # 2:
мова: англійська
переклад: оригінал
кодек: 5.1
бітрейт: 640 кб/с

Субтитри # 1:
мова: українська
тип: пререндерні
формат: *.pgs

Субтитри # 2:
мова: англійська (Full)
тип: пререндерні
формат: *.pgs

Субтитри # 3:
мова: англійська (SDH)
тип: пререндерні
формат: *.pgs

Субтитри # 4:
мова: англійська (Commentary)
тип: пререндерні
формат: *.pgs
Info:
File size : 4.84 GiB
Duration : 1h 26mn
Overall bit rate : 7 981 Kbps
Encoded date : UTC 2012-05-12 11:46:32
Writing application : mkvmerge v5.5.0 ('Healer') built on Apr 7 2012 12:04:29
Writing library : libebml v1.2.2 + libmatroska v1.3.0

Video
ID : 1
Format : AVC
Format/Info : Advanced Video Codec
Format profile : [email protected]
Format settings, CABAC : Yes
Format settings, ReFrames : 9 frames
Codec ID : V_MPEG4/ISO/AVC
Duration : 1h 26mn
Bit rate : 6 859 Kbps
Width : 1 280 pixels
Height : 530 pixels
Display aspect ratio : 2.40:1
Frame rate mode : Variable
Frame rate : 23.976 fps
Color space : YUV
Chroma subsampling : 4:2:0
Bit depth : 8 bits
Scan type : Progressive
Bits/(Pixel*Frame) : 0.422
Stream size : 4.09 GiB (84%)
Title : For Hurtom by Zeus62
Writing library : core 112
Encoding settings : cabac=1 / ref=9 / deblock=1:-3:-3 / analyse=0x3:0x113 / me=umh / subme=10 / psy=1 / psy_rd=1,00:0,00 / mixed_ref=0 / me_range=64 / chroma_me=1 / trellis=2 / 8x8dct=1 / cqm=0 / deadzone=21,11 / fast_pskip=1 / chroma_qp_offset=-2 / threads=9 / sliced_threads=0 / nr=0 / decimate=1 / interlaced=0 / constrained_intra=0 / bframes=9 / b_pyramid=2 / b_adapt=1 / b_bias=0 / direct=1 / weightb=0 / open_gop=0 / weightp=2 / keyint=240 / keyint_min=23 / scenecut=40 / intra_refresh=0 / rc_lookahead=40 / rc=2pass / mbtree=1 / bitrate=6859 / ratetol=1,0 / qcomp=0,60 / qpmin=3 / qpmax=51 / qpstep=4 / cplxblur=20,0 / qblur=0,5 / ip_ratio=1,40 / aq=1:1,00
Language : Ukrainian
Default : Yes
Forced : No
Color primaries : BT.709-5, BT.1361, IEC 61966-2-4, SMPTE RP177
Transfer characteristics : BT.709-5, BT.1361
Matrix coefficients : BT.709-5, BT.1361, IEC 61966-2-4 709, SMPTE RP177

Audio #1
ID : 2
Format : AC-3
Format/Info : Audio Coding 3
Mode extension : CM (complete main)
Format settings, Endianness : Big
Codec ID : A_AC3
Duration : 1h 26mn
Bit rate mode : Constant
Bit rate : 448 Kbps
Channel(s) : 6 channels
Channel positions : Front: L C R, Side: L R, LFE
Sampling rate : 48.0 KHz
Bit depth : 16 bits
Compression mode : Lossy
Stream size : 278 MiB (6%)
Language : Ukrainian
Default : Yes
Forced : No

Audio #2
ID : 3
Format : AC-3
Format/Info : Audio Coding 3
Mode extension : CM (complete main)
Format settings, Endianness : Big
Codec ID : A_AC3
Duration : 1h 26mn
Bit rate mode : Constant
Bit rate : 640 Kbps
Channel(s) : 6 channels
Channel positions : Front: L C R, Side: L R, LFE
Sampling rate : 48.0 KHz
Bit depth : 16 bits
Compression mode : Lossy
Stream size : 398 MiB (8%)
Language : English
Default : No
Forced : No

Text #1
ID : 4
Format : PGS
Muxing mode : zlib
Codec ID : S_HDMV/PGS
Codec ID/Info : The same subtitle format used on BDs/HD-DVDs
Language : Ukrainian
Default : No
Forced : No

Text #2
ID : 5
Format : PGS
Muxing mode : zlib
Codec ID : S_HDMV/PGS
Codec ID/Info : The same subtitle format used on BDs/HD-DVDs
Title : Full
Language : English
Default : No
Forced : No

Text #3
ID : 6
Format : PGS
Muxing mode : zlib
Codec ID : S_HDMV/PGS
Codec ID/Info : The same subtitle format used on BDs/HD-DVDs
Title : SDH
Language : English
Default : No
Forced : No

Text #4
ID : 7
Format : PGS
Muxing mode : zlib
Codec ID : S_HDMV/PGS
Codec ID/Info : The same subtitle format used on BDs/HD-DVDs
Title : Commentary
Language : English
Default : No
Forced : No
log:
[info]: frame I:1354 Avg QP: 8,87 size:161360 PSNR Mean Y:53,92 U:57,18 V:56,90 Avg:54,53 Global:53,62
[info]: frame P:51310 Avg QP:11,61 size: 64867 PSNR Mean Y:50,91 U:54,39 V:54,18 Avg:51,49 Global:50,85
[info]: frame B:72276 Avg QP:15,18 size: 12697 PSNR Mean Y:51,13 U:57,42 V:57,58 Avg:51,83 Global:50,60
[info]: consecutive B-frames: 18,1% 17,7% 10,8% 18,2% 21,4% 10,3% 1,0% 0,1% 0,1% 2,3%
[info]: mb I I16..4: 10,5% 53,0% 36,5%
[info]: mb P I16..4: 1,7% 21,4% 5,0% P16..4: 32,3% 17,9% 13,3% 0,0% 0,0% skip: 8,3%
[info]: mb B I16..4: 0,2% 1,2% 0,6% B16..8: 29,3% 12,0% 4,9% direct: 8,1% skip:43,7% L0:37,4% L1:40,8% BI:21,8%
[info]: 8x8 transform intra:73,1% inter:41,9%
[info]: coded y,uvDC,uvAC intra: 87,7% 91,7% 87,0% inter: 36,7% 29,6% 19,3%
[info]: i16 v,h,dc,p: 48% 17% 9% 26%
[info]: i8 v,h,dc,ddl,ddr,vr,hd,vl,hu: 21% 18% 13% 6% 7% 8% 8% 8% 11%
[info]: i4 v,h,dc,ddl,ddr,vr,hd,vl,hu: 29% 11% 8% 6% 11% 10% 10% 8% 9%
[info]: i8c dc,h,v,p: 46% 25% 19% 10%
[info]: Weighted P-Frames: Y:11,6% UV:7,9%
[info]: ref P L0: 63,3% 6,7% 11,0% 5,3% 3,6% 3,0% 2,4% 1,9% 1,8% 0,9% 0,1%
[info]: ref B L0: 80,7% 7,7% 4,2% 2,5% 2,0% 1,5% 1,1% 0,3%
[info]: ref B L1: 93,4% 6,6%
[info]: SSIM Mean Y:0,9953977 (23,370db)
[info]: PSNR Mean Y:51,071 U:56,171 V:56,179 Avg:51,717 Global:50,725 kb/s:6853,93
Скріншоти:
Original vs Encode






Джерело: Власний ріп +
Подяка rostik_neo за українську доріжку.
Особиста оцінка: 10 - мені подобається


 Трекер:    Зареєстрований   

Завантажити / скачати мультфільм українською



відео для новачків



 Зареєстрований:   2012-05-12 15:29
 Розмір:   4.84 GB 
 Оцінка мультфільму:   9.6/10 (Голосів: 15)
   
Інші релізи
   Черепашки ніндзя / TMNT (2007) 1080p Ukr/Eng | Sub Ukr/Eng igor911  4 / 0   4.55 GB   2013-04-05 12:10 
   Черепашки ніндзя / TMNT (2007) Remux 1080p Ukr/Eng | Sub-Eng Kuzmenko  4 / 0   11.63 GB   2010-12-24 19:33 
   Черепашки ніндзя / TMNT (2007) MAKAPOHHIK  10 / 0   1.46 GB   2009-08-26 15:25 
   Черепашки ніндзя / TMNT (2007) 720p rostik_neo  3 / 0   2.73 GB   2009-08-21 00:50 
xslim 
Відео Гуртом - фільмокрай
Відео Гуртом - фільмокрай


З нами з: 05.03.09
Востаннє: 16.08.17
Повідомлень: 853

2012-05-12 21:10  
Zeus62 
Відео Гуртом - команда HD
Відео Гуртом - команда HD


З нами з: 29.12.08
Востаннє: 09.07.17
Повідомлень: 330

2012-05-12 22:05  
Цитата:
Поки не нагримаєш щоб робив нормально й нічого не буде
[email protected] ref=9 - тепер все добре молодець

Гримати ніколи і не потрібно. Це не вихід. Бо такими методами ніколи нічого не доб’єшся.

braveboy 
Відео Гуртом - команда HD
Відео Гуртом - команда HD


З нами з: 15.06.10
Востаннє: 13.08.17
Повідомлень: 949

2012-05-12 22:11  
Zeus62 
Відео Гуртом - команда HD
Відео Гуртом - команда HD


З нами з: 29.12.08
Востаннє: 09.07.17
Повідомлень: 330

2012-05-12 22:46  
Цитата:
Чому не ставив 4.1 ?

Тому що значення було за замовчуванням. В HandBrake на Лінукс немає меню, де обирається версія профайлу.Або Normal або High.

braveboy 
Відео Гуртом - команда HD
Відео Гуртом - команда HD


З нами з: 15.06.10
Востаннє: 13.08.17
Повідомлень: 949

2012-05-18 23:11  
Zeus62 написано:
Тому що значення було за замовчуванням. В HandBrake на Лінукс немає меню, де обирається версія профайлу.Або Normal або High.

вручну пропиши

Zeus62 
Відео Гуртом - команда HD
Відео Гуртом - команда HD


З нами з: 29.12.08
Востаннє: 09.07.17
Повідомлень: 330

2012-05-19 00:46  
Цитата:
вручну пропиши

Безрезультатно.

Ваш часовий пояс: GMT + 2 Години

Нова тема   Відповісти