Ліга Справедливості (Сезон 1 Серії 1-13) / Justice League (Season 1 Episodes 1-13) (2001-2002) 720p Ukr/Eng

Нові коментарі

Нова тема   Відповісти
Останній раз роздавалося voan (2021-04-12)
Автор Повідомлення
voan 
Відео Гуртом - фільмокрай
Відео Гуртом - фільмокрай


З нами з: 12.12.09
Востаннє: 08.04.21
Повідомлень: 400

2012-05-06 19:22  
Ліга Справедливості (Сезон 1 Серії 1-13) / Justice League (Season 1 Episodes 1-13) (2001-2002) 720p Ukr/Eng

Ліга Справедливості (Сезон 1 Серії 1-13) / Justice League (Season 1 Episodes 1-13) (2001-2002) 720p Ukr/Eng


Жанр: пригодницький, екшн, фантастика, екранізація комиксу DC
Країна: США


Виробництво: Warner Bros Animation
Режисер: Ден Ріба, Батч Лукіч, Дос Сантос
Ролі озвучують: Супермен/Кларк Кент/Кал-Ел — Джордж Ньюберн, Бетмен/Брюс Вейн — Кевін Конрой, Вандервумен/Діана — Сьюзан Айзенберг, Дж’онн Дж’онзз — Карл Ламблі, Блискавка/Уоллі Вест — Майкл Розенбаум, Зелений Ліхтар/Джон Стюарт — Філ ЛаМарр, Орлиця/Шаера Хол — Марія Кеналс, Лекс Лютор — Кленсі Браун

Сюжет:
Мультсеріал про сімох великих супергероїв, що разом встали на захист Землі. Коли Супермен зрозумів, що один він не зможе встигнути абсолютно скрізь йому на допомогу прийшли: Бетмен - Страж Готема, Дж'онн Дж'онзз - Марсіанин, Джон Стюарт - Зелений Ліхтар, Флеш - Найшвидша Людина на Землі, Орлиця - Войовниця з Танагара, Діана - Принцеса Амазонок з острова Теміскіра.
Їхнім штабом стала Сторожова Вежа на орбіті Землі, побудована на гроші Бетмена. Дії відбуваються не тільки на Землі, але й у далеких світах, космосі. Лиходіїв предосить: Лекс Лютор, Сапфір, Джокер - усі ті, з якими боролися супергерої коли були поодинці.


Тривалість: 1 серія: ~ 22 хв. (цілком серій: 13 із 26)
Перелік серій
01-03 - Secret Origins (Таємниці походження)
04-05 - In Blackest Night (Найтемніша ніч)
06-07 - The Enemy Below (Ворог на дні)
08-09 - Injustice for All (Несправедливість для всіх)
10-11 - Paradise Lost (Втрачений рай)
12-13 - War World (Світ війни)
14-15 - The Brave and the Bold
16-17 - Fury
18-19 - Legends
20-21 - A Knight of Shadows
22-23 - Metamorphosis
24-26 - The Savage Time
Якість: (джерело Justice League (2001) S01 720p BluRay -ESiR)
Відео:
кодек:
розмір кадру: 960 х 720 (4 : 3)
бітрейт: ~ 3200 кб/с

Аудіо # 1:
мова: українська
переклад: багатоголосий закадровий (ISP Film)
кодек: 2.0
бітрейт: 192 кб/с

Аудіо # 2:
мова: англійська
переклад: оригінал
кодек: 5.1
бітрейт: 640 кб/с

Додаткова інформація: у 2-й серії перекладом перших хвилин до вступної заставки є субтитри, бо на Куй-Тб пропустили цю частину.
!
Info
Код:
Format                                   :
Format version                           : Version 2
File size                                : 630 MiB
Duration                                 : 21mn 41s
Overall bit rate                         : 4 059 Kbps
Encoded date                             : UTC 2012-05-02 18:28:32
Writing application                      : v5.4.0 ('Piper') built on Mar 10 2012 13:34:39
Writing library                          : libebml v1.2.3 + v1.3.0

Video
ID                                       : 1
Format                                   : AVC
Format/Info                              : Advanced Video Codec
Format profile                           : [email protected]
Format settings, CABAC                   : Yes
Format settings, ReFrames                : 8 frames
Codec ID                                 : V_MPEG4/ISO/AVC
Duration                                 : 21mn 41s
Bit rate                                 : 3 225 Kbps
Width                                    : 960 pixels
Height                                   : 720 pixels
Display aspect ratio                     : 4:3
Frame rate                               : 23.976 fps
Color space                              : YUV
Chroma subsampling                       : 4:2:0
Bit depth                                : 8 bits
Scan type                                : Progressive
Bits/(Pixel*Frame)                       : 0.195
Stream size                              : 488 MiB (78%)
Writing library                          : core 61 r965M 3d2983d
Encoding settings                        : cabac=1 / ref=8 / deblock=1:-3:-3 / analyse=0x3:0x133 / me=umh / subme=6 / psy_rd=0.6:0.0 / brdo=1 / mixed_ref=1 / me_range=16 / chroma_me=1 / trellis=0 / 8x8dct=1 / cqm=2 / deadzone=21,11 / chroma_qp_offset=-2 / threads=6 / nr=0 / decimate=0 / mbaff=0 / bframes=5 / b_pyramid=1 / b_adapt=0 / b_bias=0 / direct=1 / wpredb=1 / bime=1 / keyint=250 / keyint_min=25 / scenecut=40(pre) / rc=2pass / bitrate=3225 / ratetol=1.0 / qcomp=1.00 / qpmin=10 / qpmax=51 / qpstep=4 / cplxblur=20.0 / qblur=0.5 / ip_ratio=1.40 / pb_ratio=1.30 / aq=2:0.60
Language                                 : English
Default                                  : Yes
Forced                                   : No

Audio #1
ID                                       : 2
Format                                   : AC-3
Format/Info                              : Audio Coding 3
Mode extension                           : CM (complete main)
Codec ID                                 : A_AC3
Duration                                 : 21mn 41s
Bit rate mode                            : Constant
Bit rate                                 : 192 Kbps
Channel(s)                               : 2 channels
Channel positions                        : Front: L R
Sampling rate                            : 48.0 KHz
Bit depth                                : 16 bits
Compression mode                         : Lossy
Stream size                              : 29.8 MiB (5%)
Title                                    : 2.0
Language                                 : Ukrainian
Default                                  : Yes
Forced                                   : No

Audio #2
ID                                       : 3
Format                                   : AC-3
Format/Info                              : Audio Coding 3
Mode extension                           : CM (complete main)
Codec ID                                 : A_AC3
Duration                                 : 21mn 41s
Bit rate mode                            : Constant
Bit rate                                 : 640 Kbps
Channel(s)                               : 6 channels
Channel positions                        : Front: L C R, Side: L R, LFE
Sampling rate                            : 48.0 KHz
Bit depth                                : 16 bits
Compression mode                         : Lossy
Stream size                              : 99.3 MiB (16%)
Title                                    : Original - 5.1
Language                                 : English
Default                                  : No
Forced                                   : No
!
Скріншоти:

Велика подяка:
запис з Куй-ТБ - 4erkov, DareDevil96, DVO, Technomate, voan
оформлення роздачі та зведення - voan



Посилання на попередні і альтернативні роздачі:

ISP Film для
!
Ліга Справедливості (Ліга Справедливості Без меж) (Сезон 1) / Justice League Unlimited (Season 1) (2004-2006) 720p Ukr/Eng

Студія "Стармайстер" на замовлення телекомпанії
!
Ліга Справедливості (Сезон 1) / Justice League (Season 1) (2001-2002) BlurayRip-AVC Ukr/Eng
Ліга Справедливості (Сезон 2) / Justice League (Season 2) (2003-2004) -AVC Ukr/Eng
Ліга Справедливості Без меж (Сезон 3, 4 і 5) / Justice League Unlimited (Season 3, 4 and 5) Ukr/Eng
!


Джерело: &
Особиста оцінка: 10 - без зайвих вагань рекомендую всім!


Срібний реліз (на рейтинг впливає 50% завантаженого)
 Трекер:    Зареєстрований   

Завантажити / скачати мультфільм українською



відео для новачків



 Зареєстрований:   2012-05-06 19:22
 Розмір:   8 GB 
 Оцінка мультсеріалу:   9.9/10 (Голосів: 12)
   
fl_fl 
Відео Гуртом - фільмокрай
Відео Гуртом - фільмокрай


З нами з: 26.05.09
Востаннє: 14.04.21
Повідомлень: 3382

2012-05-06 19:59  
У титрах казали, що за студія озвучує?
voan 
Відео Гуртом - фільмокрай
Відео Гуртом - фільмокрай


З нами з: 12.12.09
Востаннє: 08.04.21
Повідомлень: 400

2012-05-06 22:38  
yuraflash написано:
У титрах казали, що за студія озвучує?

які можуть бути титри на Куй-ТБ.. постійно їх обрізають. тому титри вимущений був брати з орігінальної доріжки без усіяких "озвучено на замовлення.."

Dark Invader 
Модератор відео


З нами з: 06.01.11
Востаннє: 14.04.21
Повідомлень: 3176

2012-05-06 23:29  
А SD реліз планується?
voan 
Відео Гуртом - фільмокрай
Відео Гуртом - фільмокрай


З нами з: 12.12.09
Востаннє: 08.04.21
Повідомлень: 400

2012-05-07 19:07  
Dark Invader 2 написано:
А SD реліз планується?

поки що ні. мені зараз хоча б у такій якості довест до кінця сезон, а там ще 2 сезон та сезони Ліги справедливості без меж.. нічого наразі сказати з 100% впевненісттю не можу

Antrakos 
Відео Гуртом - субтитрування
Відео Гуртом - субтитрування


З нами з: 31.01.12
Востаннє: 11.02.21
Повідомлень: 147

2012-05-10 17:55  
Скріншоти під спойлер треба взяти.
Dark Invader 
Модератор відео


З нами з: 06.01.11
Востаннє: 14.04.21
Повідомлень: 3176

2012-05-10 18:39  
Antrakos написано:
Скріншоти під спойлер треба взяти.

Це вже за бажанням автора, бо це не обов"язково.

maksym1up 
Відео Гуртом - фільмокрай
Відео Гуртом - фільмокрай


З нами з: 01.12.10
Востаннє: 15.05.19
Повідомлень: 249

2012-05-13 21:51  
на 2 сезон можна очікувати???
DiGen 
Модератор HD та координатор Команди HD
Модератор HD та координатор Команди HD


З нами з: 12.11.09
Востаннє: 24.06.13
Повідомлень: 1446

2012-05-18 02:33  
voan написано:
Bluray

виправити

Додано через 1 годину 26 хвилин 48 секунд:

https://toloka.to/t201
Пункт 11

voan 
Відео Гуртом - фільмокрай
Відео Гуртом - фільмокрай


З нами з: 12.12.09
Востаннє: 08.04.21
Повідомлень: 400

2012-05-28 19:32  
maksym1up написано:
на 2 сезон можна очікувати???

на усі сезони можна очікувати Happy

Jatx_11 
Відео Гуртом - фільмокрай
Відео Гуртом - фільмокрай


З нами з: 20.04.11
Востаннє: 12.04.21
Повідомлень: 1108

2012-07-12 12:27  
По КуйТБ зараз транслюють мультсеріал. Можливо та транслюють пропущені серіїї
voan 
Відео Гуртом - фільмокрай
Відео Гуртом - фільмокрай


З нами з: 12.12.09
Востаннє: 08.04.21
Повідомлень: 400

2012-07-13 18:52  
Jatx_11 написано:
По КуйТБ зараз транслюють мультсеріал. Можливо та транслюють пропущені серіїї

звук майже до всіх серій в мене мається. зараз пишу деякі серії яких в мене немає, хоча перший показ Ліги багатенько людей писало, можливо сірії всі і записані були але для підстраховки все ж таки пишу..

mammamia 
Новенький


З нами з: 15.05.09
Востаннє: 13.02.21
Повідомлень: 18

2014-03-12 11:02  
Будь ласка, станьте на роздачу!!!
falc1 
Новенький


З нами з: 07.01.12
Востаннє: 21.02.21
Повідомлень: 1

2014-11-27 05:38  
станьте на роздачу, бьдь-ласка!
Jatx 
Свій


З нами з: 15.03.11
Востаннє: 12.04.21
Повідомлень: 72

2020-01-10 15:30  
Є в когось може звук до відсутніх серій?
Gazorpazorpfield 
Новенький


З нами з: 07.09.18
Востаннє: 14.04.21
Повідомлень: 9

2021-04-14 17:40  
Може хтось роздати?

Додано через 6 хвилин 7 секунд:

А чому тут тільки половина сезону?

Ваш часовий пояс: GMT + 2 Години

Нова тема   Відповісти