Змивайся / Flushed Away (2006) 720p Ukr/Eng | Sub Ukr/Eng

Нові коментарі

Нова тема   Відповісти
Автор Повідомлення
braveboy 
Відео Гуртом - команда HD
Відео Гуртом - команда HD


З нами з: 15.06.10
Востаннє: 13.08.17
Повідомлень: 949

2012-05-02 23:17  

Змивайся / Flushed Away (2006) 720p Ukr/Eng | Sub Ukr/Eng


Змивайся / Flushed Away (2006) 720p Ukr/Eng | Sub Ukr/Eng

«З цивілізації - у каналізацію»

Жанр: анімація, пригодницький, комедія, сімейний
Країна: Велика Британія, США



Кіностудія / кінокомпанія: DreamWorks Animation Aardman Animations, Paramount Pictures
Режисер: Девід Боверс, Сем Фелл
Актори: Гью Джекман, Кейт Вінслет, Іен МакКеллен, Жан Рено, Білл Най, Енді Серкіс


Сюжет:
Родді - привілейований щур, що живе життям улюбленої домашньої тварини в престижному пентхаусі. Одного разу засмічена раковина "випльовує" в квартиру каналізаційного щура Сіда, якому припадають до душі розкішні апартаменти. Щоб позбутися надокучливого гостя, Родді вирішує змити його в унітаз, але житель каналізації не такий простак, яким здається, і в результаті в унітазі опиняється сам Родді. Потрапивши в каналізацію, йому належить звикнути до абсолютно нового, незнайомого йому життя ...



Тривалість: 1:24:35
Якість: 720p
Відео:
кодек:
розмір кадру: 1280 x 692
бітрейт: 6571 кб/с

Аудіо # 1:
мова: українська
переклад: професійний дубльований
кодек: 5.1
бітрейт: 384 кб/с

Аудіо # 2:
мова: англійська
переклад: оригінал
кодек: 5.1
бітрейт: 448 кб/с

Джерело озвучення:


Субтитри:
мова: українська
тип: програмні (м'які)
формат: *.srt

Субтитри:
мова: англійська
тип: програмні (м'які)
формат: *.srt
log

[info]: frame I:1408 Avg QP:11.02 size:147941
[info]: frame P:35463 Avg QP:12.25 size: 65795
[info]: frame B:84791 Avg QP:14.83 size: 19191
[info]: consecutive B-frames: 4.9% 5.6% 13.6% 61.7% 7.7% 5.2% 1.1%
[info]: mb I I16..4: 9.1% 61.4% 29.6%
[info]: mb P I16..4: 2.0% 14.4% 4.6% P16..4: 32.7% 15.0% 17.5% 2.2% 1.3% skip:10.2%
[info]: mb B I16..4: 0.3% 2.3% 1.1% B16..8: 26.4% 12.8% 5.5% direct: 4.9% skip:46.8% L0:40.2% L1:44.3% BI:15.6%
[info]: 8x8 transform intra:66.1% inter:44.7%
[info]: coded y,uvDC,uvAC intra: 86.2% 86.9% 79.6% inter: 29.1% 28.8% 18.4%
[info]: i16 v,h,dc,p: 40% 17% 6% 37%
[info]: i8 v,h,dc,ddl,ddr,vr,hd,vl,hu: 15% 16% 11% 7% 9% 9% 10% 10% 13%
[info]: i4 v,h,dc,ddl,ddr,vr,hd,vl,hu: 20% 11% 5% 8% 12% 11% 12% 10% 12%
[info]: i8c dc,h,v,p: 47% 24% 19% 9%
[info]: Weighted P-Frames: Y:2.0% UV:1.0%
[info]: ref P L0: 64.9% 5.8% 13.3% 5.6% 3.6% 2.7% 2.2% 1.6% 0.4% 0.0%
[info]: ref B L0: 82.2% 9.2% 3.7% 2.0% 1.7% 0.8% 0.4%
[info]: ref B L1: 95.0% 5.0%
Info
General
Unique ID : 254112735933696536498462745882537714677 (0xBF2C552E5978DE34B44A7E886D7763F5)
Complete name : E:\Temp\Flushed Away (2006) [Ukr,Eng Sub Ukr,Eng] 720p [HURTOM] by braveboy.
Format :
Format version : Version 2
File size : 4.37 GiB
Duration : 1h 24mn
Overall bit rate : 7 404 Kbps
Movie name : Flushed Away (2006) 720p by braveboy
Encoded date : UTC 2012-05-02 19:56:08
Writing application : mkvmerge v5.5.0 ('Healer') built on Apr 6 2012 21:43:24
Writing library : libebml v1.2.3 + libmatroska v1.3.0

Video
ID : 1
Format : AVC
Format/Info : Advanced Video Codec
Format profile : [email protected]
Format settings, CABAC : Yes
Format settings, ReFrames : 8 frames
Codec ID : V_MPEG4/ISO/AVC
Duration : 1h 24mn
Bit rate : 6 571 Kbps
Width : 1 280 pixels
Height : 692 pixels
Display aspect ratio : 1.85:1
Frame rate : 23.976 fps
Color space : YUV
Chroma subsampling : 4:2:0
Bit depth : 8 bits
Scan type : Progressive
Bits/(Pixel*Frame) : 0.309
Stream size : 3.80 GiB (87%)
Title : Flushed Away (2006) 720p by braveboy
Writing library : core 124 r2197 69a0443
Encoding settings : cabac=1 / ref=8 / deblock=1:-3:-3 / analyse=0x3:0x133 / me=umh / subme=9 / psy=1 / psy_rd=1.00:0.00 / mixed_ref=1 / me_range=34 / chroma_me=1 / trellis=1 / 8x8dct=1 / cqm=0 / deadzone=21,11 / fast_pskip=0 / chroma_qp_offset=-2 / threads=3 / sliced_threads=0 / nr=0 / decimate=0 / interlaced=0 / bluray_compat=0 / constrained_intra=0 / bframes=6 / b_pyramid=2 / b_adapt=2 / b_bias=0 / direct=1 / weightb=1 / open_gop=0 / weightp=2 / keyint=240 / keyint_min=24 / scenecut=40 / intra_refresh=0 / rc_lookahead=40 / rc=2pass / mbtree=1 / bitrate=6571 / ratetol=1.0 / qcomp=0.60 / qpmin=10 / qpmax=51 / qpstep=4 / cplxblur=20.0 / qblur=0.5 / ip_ratio=1.40 / aq=1:1.00
Default : Yes
Forced : No

Audio #1
ID : 2
Format : AC-3
Format/Info : Audio Coding 3
Mode extension : CM (complete main)
Format settings, Endianness : Big
Codec ID : A_AC3
Duration : 1h 24mn
Bit rate mode : Constant
Bit rate : 384 Kbps
Channel(s) : 6 channels
Channel positions : Front: L C R, Side: L R, LFE
Sampling rate : 48.0 KHz
Bit depth : 16 bits
Compression mode : Lossy
Stream size : 232 MiB (5%)
Title : 5.1 - 384 kbps [DVD]
Language : Ukrainian
Default : Yes
Forced : No

Audio #2
ID : 3
Format : AC-3
Format/Info : Audio Coding 3
Mode extension : CM (complete main)
Format settings, Endianness : Big
Codec ID : A_AC3
Duration : 1h 24mn
Bit rate mode : Constant
Bit rate : 448 Kbps
Channel(s) : 6 channels
Channel positions : Front: L C R, Side: L R, LFE
Sampling rate : 48.0 KHz
Bit depth : 16 bits
Compression mode : Lossy
Stream size : 271 MiB (6%)
Title : 5.1 - 448 kbps
Language : English
Default : No
Forced : No

Text #1
ID : 4
Format : UTF-8
Codec ID : S_TEXT/UTF8
Codec ID/Info : UTF-8 Plain Text
Title : Full
Language : Ukrainian
Default : No
Forced : No

Text #2
ID : 5
Format : UTF-8
Codec ID : S_TEXT/UTF8
Codec ID/Info : UTF-8 Plain Text
Title : Full
Language : English
Default : No
Forced : No
Порівняльні скріншоти
Source vs Encode







Скріншоти



720p by braveboy
Цитата:

Source: Flushed Away (2006) HDTV 1080p


 Трекер:    Зареєстрований   

Завантажити / скачати мультфільм українською



відео для новачків



 Зареєстрований:   2012-05-02 23:18
 Розмір:   4.37 GB 
 Оцінка мультфільму:   9.3/10 (Голосів: 17)
   
Інші релізи
   Змивайся / Flushed Away (2006) AVC 2xUkr/2xEng | Sub Ukr/2xEng tarasyk98  6 / 0   1.79 GB   2015-04-27 19:03 
   Змивайся / Flushed Away (2006) 2xUkr patriot2305  16 / 1   1.45 GB   2015-04-27 08:28 
   Змивайся / Flushed Away (2006) [ 5.1] vpalii  0 / 0   223 MB   2013-11-04 20:57 
   Змивайся / Flushed Away (2006) DVD9 Ukr/Rus/Eng vpalii  5 / 0   6.7 GB   2008-10-26 21:20 
braveboy 
Відео Гуртом - команда HD
Відео Гуртом - команда HD


З нами з: 15.06.10
Востаннє: 13.08.17
Повідомлень: 949

2012-05-02 23:34  
з бітрейтом трохи переборщив Happy
DiGen 
Модератор HD та координатор Команди HD
Модератор HD та координатор Команди HD


З нами з: 12.11.09
Востаннє: 24.06.13
Повідомлень: 1451

2012-05-03 01:32  
А де лог та світлини
braveboy 
Відео Гуртом - команда HD
Відео Гуртом - команда HD


З нами з: 15.06.10
Востаннє: 13.08.17
Повідомлень: 949

2012-05-03 02:43  
DiGen написано:
А де лог та світлини

вже додаю

Додано через 2 хвилини 32 секунди:

лог додав а світлини пізніше додам ок

Додано через 1 годину 6 хвилин 3 секунди:

DiGen
готово

DiGen 
Модератор HD та координатор Команди HD
Модератор HD та координатор Команди HD


З нами з: 12.11.09
Востаннє: 24.06.13
Повідомлень: 1451

2012-05-04 00:25  
braveboy написано:
Flushed Away (2006) HDTV 1080p

А на порівняльних світлинах не бачу 1080

braveboy 
Відео Гуртом - команда HD
Відео Гуртом - команда HD


З нами з: 15.06.10
Востаннє: 13.08.17
Повідомлень: 949

2012-05-04 00:29  
DiGen написано:
А на порівняльних світлинах не бачу 1080

порівняльні скріни повинні мати однаковий розмір кадру

xslim 
Відео Гуртом - фільмокрай
Відео Гуртом - фільмокрай


З нами з: 05.03.09
Востаннє: 21.08.17
Повідомлень: 853

2012-05-04 01:24  
Ось почитайте - [Прямий лінк видалено]

Додано через 1 хвилину 57 секунд:

І braveboy роби ріпи з subme=10 або краще з 11

braveboy 
Відео Гуртом - команда HD
Відео Гуртом - команда HD


З нами з: 15.06.10
Востаннє: 13.08.17
Повідомлень: 949

2012-05-04 01:33  
xslim написано:
І braveboy роби ріпи з subme=10 або краще з 11

9 з головою вистачає

xslim 
Відео Гуртом - фільмокрай
Відео Гуртом - фільмокрай


З нами з: 05.03.09
Востаннє: 21.08.17
Повідомлень: 853

2012-05-04 01:37  
ага а 10 і 11 це гівно зроби для себе порівняня і сам переконаєся
DiGen 
Модератор HD та координатор Команди HD
Модератор HD та координатор Команди HD


З нами з: 12.11.09
Востаннє: 24.06.13
Повідомлень: 1451

2012-05-04 01:40  
braveboy,
xslim написано:
subme=10 або краще з 11

це дійсно так. Краще одразу 11.
Я вважаю, що краще оригінал не стискати - є 1080, то нехай так буде. Краще порівнювати.

Додано через 2 хвилини 55 секунд:

Відредагував код по світлинах, порівняльних... Тепер краще!

braveboy 
Відео Гуртом - команда HD
Відео Гуртом - команда HD


З нами з: 15.06.10
Востаннє: 13.08.17
Повідомлень: 949

2012-05-04 01:46  
xslim написано:
ага а 10 і 11 це гівно зроби длясебе порівняня і сам переконаєся

я вже експерементував але при такому високому бітрейті вистачає і навіть 7-8

Додано через 1 хвилину 42 секунди:

DiGen написано:
Відредагував код по світлинах, порівняльних... Тепер краще!

що стало краще?

DiGen 
Модератор HD та координатор Команди HD
Модератор HD та координатор Команди HD


З нами з: 12.11.09
Востаннє: 24.06.13
Повідомлень: 1451

2012-05-04 01:49  
Відкрий спойлер
braveboy написано:
Порівняльні скріншоти

braveboy 
Відео Гуртом - команда HD
Відео Гуртом - команда HD


З нами з: 15.06.10
Востаннє: 13.08.17
Повідомлень: 949

2012-05-04 01:51  
DiGen написано:

Відкрий спойлер
braveboy написано:
Порівняльні скріншоти


а зрозумів

gsalexander 
Новенький


З нами з: 14.05.16
Востаннє: 20.08.17
Повідомлень: 1

2017-06-27 20:45  
Роздайте, будь-ласка, залишилось 200Mb ((
Ваш часовий пояс: GMT + 2 Години

Нова тема   Відповісти