Dazzle Dreams - Diva (2012) [FLAC] | Electronic

Нові коментарі

Нова тема   Відповісти
Останній раз роздавалося hulayviter (2017-08-21)
Автор Повідомлення
alex_blank 
Частий відвідувач


З нами з: 03.01.10
Востаннє: 21.08.17
Повідомлень: 28

2012-04-27 15:14  
Dazzle Dreams - Diva (2012) [FLAC] | Electronic

Dazzle Dreams - Diva (2012) [FLAC] | Electronic


Стиль: Synth Ethno
Країна, місто: Україна
Сайти: Офіційний сайт
Видавець: Lavina Music
Виконавці:
Дмитро Ципердюк (Dimitri) та Шура Гера
Пісні:
    01. Air Of Intro (03:55)
    02. Message (04:20)
    03. Хочеться вірити (04:10)
    04. Ethno 1 (02:05)
    05. Indigo (05:07)
    06. Ethno 2 (01:51)
    07. Діва Марія (03:50)
    08. Приватна територія (03:48)
    09. Що за сила мене тягне (05:08)
    10. Flash In The Night (03:55)
    11. Чому? (04:35)
    12. Message (Remix) (04:14)
    13. Air Of Outro (03:30)

Тривалість: 00:50:32
Мова: українська (02,03,05,07-12), англійська (02,07,09,10,12)
Аудіо-кодек: FLAC
Бітрейт: ~600-1040 кб/с
Джерело: Власний диск

Якщо Ви справді бажаєте підтримати українське - після прослуховування, якщо музика вам сподобалась, придбайте ліцензійний диск. Підтримаймо вітчизняних виконавців!
"Dazzle Dreams - Diva.log"
Exact Audio Copy V1.0 beta 3 from 29. August 2011

EAC extraction logfile from 27. April 2012, 15:03

Dazzle Dreams / Diva

Used drive : TSSTcorpCDDVDW SH-S222A Adapter: 0 ID: 1

Read mode : Secure
Utilize accurate stream : Yes
Defeat audio cache : Yes
Make use of C2 pointers : No

Read offset correction : 6
Overread into Lead-In and Lead-Out : No
Fill up missing offset samples with silence : Yes
Delete leading and trailing silent blocks : No
Null samples used in CRC calculations : Yes
Used interface : Native Win32 interface for Win NT & 2000
Gap handling : Appended to previous track

Used output format : User Defined Encoder
Selected bitrate : 1024 kBit/s
Quality : High
Add ID3 tag : No
Command line compressor : C:\Program Files\Exact Audio Copy\Flac\flac.exe
Additional command line options : -8 -V -T "ARTIST=%artist%" -T "TITLE=%title%" -T "ALBUM=%albumtitle%" -T "DATE=%year%" -T "TRACKNUMBER=%tracknr%" -T "GENRE=%genre%" -T "PERFORMER=%albuminterpret%" -T "COMPOSER=%composer%" %haslyrics%--tag-from-file=LYRICS="%lyricsfile%"%haslyrics% -T "ALBUMARTIST=%albumartist%" -T "DISCNUMBER=%cdnumber%" -T "TOTALDISCS=%totalcds%" -T "TOTALTRACKS=%numtracks%" -T "COMMENT=%comment%" %source% -o %dest%

TOC of the extracted CD

Track | Start | Length | Start sector | End sector
---------------------------------------------------------
1 | 0:00.00 | 3:55.00 | 0 | 17624
2 | 3:55.00 | 4:20.35 | 17625 | 37159
3 | 8:15.35 | 4:10.19 | 37160 | 55928
4 | 12:25.54 | 2:05.38 | 55929 | 65341
5 | 14:31.17 | 5:07.50 | 65342 | 88416
6 | 19:38.67 | 1:51.00 | 88417 | 96741
7 | 21:29.67 | 3:50.19 | 96742 | 114010
8 | 25:20.11 | 3:48.00 | 114011 | 131110
9 | 29:08.11 | 5:08.00 | 131111 | 154210
10 | 34:16.11 | 3:55.57 | 154211 | 171892
11 | 38:11.68 | 4:35.00 | 171893 | 192517
12 | 42:46.68 | 4:14.19 | 192518 | 211586
13 | 47:01.12 | 3:30.34 | 211587 | 227370

Track 1

Filename D:\Music\[Genre] Pop\Dazzle Dreams - Diva (2012) Lossless\01 - Air Of Intro.wav

Pre-gap length 0:00:02.00

Peak level 99.6 %
Extraction speed 4.2 X
Track quality 100.0 %
Test CRC CCB775B2
Copy CRC CCB775B2
Track not present in AccurateRip database
Copy OK

Track 2

Filename D:\Music\[Genre] Pop\Dazzle Dreams - Diva (2012) Lossless\02 - Message.wav

Pre-gap length 0:00:02.00

Peak level 98.3 %
Extraction speed 4.7 X
Track quality 100.0 %
Test CRC AB29765E
Copy CRC AB29765E
Track not present in AccurateRip database
Copy OK

Track 3

Filename D:\Music\[Genre] Pop\Dazzle Dreams - Diva (2012) Lossless\03 - Хочеться вірити.wav

Pre-gap length 0:00:02.00

Peak level 98.8 %
Extraction speed 5.2 X
Track quality 100.0 %
Test CRC E9133157
Copy CRC E9133157
Track not present in AccurateRip database
Copy OK

Track 4

Filename D:\Music\[Genre] Pop\Dazzle Dreams - Diva (2012) Lossless\04 - Ethno 1.wav

Pre-gap length 0:00:02.00

Peak level 97.3 %
Extraction speed 3.5 X
Track quality 99.9 %
Test CRC 9E48E5EB
Copy CRC 9E48E5EB
Track not present in AccurateRip database
Copy OK

Track 5

Filename D:\Music\[Genre] Pop\Dazzle Dreams - Diva (2012) Lossless\05 - Indigo.wav

Pre-gap length 0:00:02.00

Peak level 100.0 %
Extraction speed 5.9 X
Track quality 100.0 %
Test CRC F53D8B2F
Copy CRC F53D8B2F
Track not present in AccurateRip database
Copy OK

Track 6

Filename D:\Music\[Genre] Pop\Dazzle Dreams - Diva (2012) Lossless\06 - Ethno 2.wav

Pre-gap length 0:00:02.00

Peak level 97.1 %
Extraction speed 5.2 X
Track quality 100.0 %
Test CRC FCA55195
Copy CRC FCA55195
Track not present in AccurateRip database
Copy OK

Track 7

Filename D:\Music\[Genre] Pop\Dazzle Dreams - Diva (2012) Lossless\07 - Діва Марія.wav

Pre-gap length 0:00:02.00

Peak level 98.4 %
Extraction speed 6.2 X
Track quality 100.0 %
Test CRC D92FAD9F
Copy CRC D92FAD9F
Track not present in AccurateRip database
Copy OK

Track 8

Filename D:\Music\[Genre] Pop\Dazzle Dreams - Diva (2012) Lossless\08 - Приватна територія.wav

Pre-gap length 0:00:02.00

Peak level 98.7 %
Extraction speed 6.5 X
Track quality 100.0 %
Test CRC 238BEEC6
Copy CRC 238BEEC6
Track not present in AccurateRip database
Copy OK

Track 9

Filename D:\Music\[Genre] Pop\Dazzle Dreams - Diva (2012) Lossless\09 - Що за сила мене тягне.wav

Pre-gap length 0:00:02.00

Peak level 98.6 %
Extraction speed 7.0 X
Track quality 100.0 %
Test CRC 91EFA5E5
Copy CRC 91EFA5E5
Track not present in AccurateRip database
Copy OK

Track 10

Filename D:\Music\[Genre] Pop\Dazzle Dreams - Diva (2012) Lossless\10 - Flash In The Night.wav

Pre-gap length 0:00:02.00

Peak level 98.4 %
Extraction speed 7.2 X
Track quality 100.0 %
Test CRC B6A4F971
Copy CRC B6A4F971
Track not present in AccurateRip database
Copy OK

Track 11

Filename D:\Music\[Genre] Pop\Dazzle Dreams - Diva (2012) Lossless\11 - Чому.wav

Pre-gap length 0:00:02.00

Peak level 98.6 %
Extraction speed 7.5 X
Track quality 100.0 %
Test CRC AD0D45FC
Copy CRC AD0D45FC
Track not present in AccurateRip database
Copy OK

Track 12

Filename D:\Music\[Genre] Pop\Dazzle Dreams - Diva (2012) Lossless\12 - Message (Remix).wav

Pre-gap length 0:00:02.00

Peak level 97.9 %
Extraction speed 6.2 X
Track quality 100.0 %
Test CRC 4F90AC84
Copy CRC 4F90AC84
Track not present in AccurateRip database
Copy OK

Track 13

Filename D:\Music\[Genre] Pop\Dazzle Dreams - Diva (2012) Lossless\13 - Air Of Outro.wav

Pre-gap length 0:00:02.00

Peak level 98.2 %
Extraction speed 7.7 X
Track quality 100.0 %
Test CRC 281F9085
Copy CRC 281F9085
Track not present in AccurateRip database
Copy OK

None of the tracks are present in the AccurateRip database

No errors occurred

End of status report

---- CUETools DB Plugin V2.1.3

[CTDB TOCID: IWhjmbsNoUb8tDQWLFqJa3jN8xs-] disk not present in database, Submit result: IWhjmbsNoUb8tDQWLFqJa3jN8xs- has been uploaded

==== Log checksum 86C198BA90D12A80E1DD62DCC2BE9823BB7DDD01604C32428CEECAD28FC29CD0 ====


Срібний реліз (на рейтинг впливає 50% завантаженого)
 Трекер:    Зареєстрований   

Завантажити / скачати українську музику



відео для новачків



 Зареєстрований:   2012-04-27 15:14
 Розмір:   357 MB 
 Оцінка музики:   9.3/10 (Голосів: 15)
   
Kucherman 
Свій


З нами з: 03.06.08
Востаннє: 16.08.17
Повідомлень: 50

2012-05-02 13:54  
Чудовий альбом! Кращий як на мене. Паралельно слухав з новим альбомом Скрябіна "Радіо любов", то цей мені сподобавсь значно більше! Молодці, так тримати!

"...а там під колінами, з болотом та глиною, лежить моя милая, моя Солов'їная..." влучно написали!

ingwar 
Модератор літератури


З нами з: 08.03.08
Востаннє: 21.08.17
Повідомлень: 1232

2013-07-11 08:25  
Гарна музика, купив собі диск
dedmorozyk 
Новенький


З нами з: 30.09.08
Востаннє: 16.08.17
Повідомлень: 4

2015-04-01 20:43  
Коли буде сольный проект "LUIKU" ?
Ваш часовий пояс: GMT + 2 Години

Нова тема   Відповісти