Тримай хвилю / Surf's Up (2007) 720p Ukr/Eng

Нові коментарі

Нова тема   Відповісти
Автор Повідомлення
Zeus62 
Відео Гуртом - команда HD
Відео Гуртом - команда HD


З нами з: 29.12.08
Востаннє: 09.07.17
Повідомлень: 330

2012-04-17 01:31  
Тримай хвилю / Surf's Up (2007) 720p Ukr/Eng

Тримай хвилю / Surf's Up (2007) 720p Ukr/Eng


Жанр: анімація, комедія, сімейний
Країна: США



Кіностудія / кінокомпанія: Sony Pictures
Режисер: Еш Бреннан і Кріс Бак
Актори: Шайа ЛаБаф, Джефф Бріджес, Зуї Дешанель, Джон Хідер, Джеймс Вудс, Дідріх Бадер, Маріо Кантоні, Келлі Слейтер, Роб Мачадо

Сюжет:
Хто з нас не мріє піддатися течії, насолодитися ласкавими хвилями або, врешті-решт, підкорити водну стихію, коли морська безодня проявляє свій дикий темперамент?
Головний герой комедійного анімаційного фільму - молодий та амбіційний пінгвін Коді - саме тільки і марить тим, щоб приборкати найвищу хвилю на майбутньому найбільшому змаганні з серфінгу. Завдяки знімальній групі, яка невтомно стежить за новою зіркою Коді, ми проникаємо за лаштунки елітного спорту. І, коли на своєму шляху до слави Коді зустрічає колись знаменитого, але нині вийшов в тираж серфінгіста Гика (Джеф Бріджес), він переглядає свої погляди на перемогу і розуміє, що справжній переможець не завжди той, хто прийшов першим. Чи підтримають Коді друзі?


Тривалість: 01:25:31
Якість:
Відео:
кодек:
розмір кадру: 1280 х 696
бітрейт: 6532 кб/с

Аудіо # 1:
мова: українська
переклад: професійний дубльований
кодек: 5.1
бітрейт: 448 кб/с

Аудіо # 2:
мова: англійська
переклад: оригінал
кодек: 5.1
бітрейт: 384 кб/с
Цікаві факти:

1) Фільм Тримай хвилю знімали протягом трьох років за участі не тільки провідних фахівців у галузі сучасної анімації, але й кращих серфінгістів Америки, які консультували творців фільму, під яким кутом краще ставити дошку, як впливає вітер на швидкість і скільки повинен важити пінгвін для того, щоб втриматись на хвилі.
2) Під час підготовки проекту до випуску автори спеціально працювали зі справжньою кригою для того, щоб максимально достовірно передати умови, у яких розгортаються події фільму.
3) У дублюванні фільму англійською мовою брали участь справжні зірки Голівуду, серед яких молодий та дуже талановитий актор Шіа Ле Беф, який цього літа з'явиться на екранах у суперпроекті Стівена Спілберга «Трансформери», а також відомий актор Джеф Бріджес та зірка «Автостопом по Галактиці» Зоє Дешанель.
4) Українською мовою фільм дублювали у Києві кращі українські актори та спеціалісти з дублювання, серед яких і Володимир Голосняк, який працював над легендарними «Тачками» - першим дубльованим україномовним фільмом.
5) Для «Тримай Хвилю» було зроблено переспіви багатьох світових хітів, назви яких тримали у секреті і які стали відомі лише після випуску фільму.
Info:

File size : 4.40 GiB
Duration : 1h 25mn
Overall bit rate : 7 367 Kbps
Writing application : HandBrake rev3736
Writing library : libmkv 0.6.4.1

Video
ID : 1
Format : AVC
Format/Info : Advanced Video Codec
Format profile : [email protected]
Format settings, CABAC : Yes
Format settings, ReFrames : 16 frames
Codec ID : V_MPEG4/ISO/AVC
Duration : 1h 25mn
Bit rate : 6 532 Kbps
Width : 1 280 pixels
Height : 696 pixels
Display aspect ratio : 1.85:1
Frame rate mode : Variable
Frame rate : 23.976 fps
Color space : YUV
Chroma subsampling : 4:2:0
Bit depth : 8 bits
Scan type : Progressive
Bits/(Pixel*Frame) : 0.306
Stream size : 3.82 GiB (87%)
Writing library : core 112
Encoding settings : cabac=1 / ref=16 / deblock=1:-3:-3 / analyse=0x3:0x113 / me=umh / subme=10 / psy=1 / psy_rd=1,00:0,00 / mixed_ref=1 / me_range=64 / chroma_me=1 / trellis=2 / 8x8dct=1 / cqm=0 / deadzone=21,11 / fast_pskip=1 / chroma_qp_offset=-2 / threads=9 / sliced_threads=0 / nr=0 / decimate=1 / interlaced=0 / constrained_intra=0 / bframes=16 / b_pyramid=2 / b_adapt=2 / b_bias=0 / direct=1 / weightb=1 / open_gop=0 / weightp=2 / keyint=240 / keyint_min=23 / scenecut=40 / intra_refresh=0 / rc_lookahead=50 / rc=2pass / mbtree=1 / bitrate=6532 / ratetol=1,0 / qcomp=0,60 / qpmin=3 / qpmax=51 / qpstep=4 / cplxblur=20,0 / qblur=0,5 / ip_ratio=1,40 / aq=1:1,00
Language : English
Default : Yes
Forced : No
Color primaries : BT.709-5, BT.1361, IEC 61966-2-4, SMPTE RP177
Transfer characteristics : BT.709-5, BT.1361
Matrix coefficients : BT.709-5, BT.1361, IEC 61966-2-4 709, SMPTE RP177

Audio #1
ID : 2
Format : AC-3
Format/Info : Audio Coding 3
Mode extension : CM (complete main)
Format settings, Endianness : Big
Codec ID : A_AC3
Duration : 1h 25mn
Bit rate mode : Constant
Bit rate : 448 Kbps
Channel(s) : 6 channels
Channel positions : Front: L C R, Side: L R, LFE
Sampling rate : 48.0 KHz
Bit depth : 16 bits
Compression mode : Lossy
Stream size : 274 MiB (6%)
Language : Ukrainian
Default : Yes
Forced : No

Audio #2
ID : 3
Format : AC-3
Format/Info : Audio Coding 3
Mode extension : CM (complete main)
Format settings, Endianness : Big
Codec ID : A_AC3
Duration : 1h 25mn
Bit rate mode : Constant
Bit rate : 384 Kbps
Channel(s) : 6 channels
Channel positions : Front: L C R, Side: L R, LFE
Sampling rate : 48.0 KHz
Bit depth : 16 bits
Compression mode : Lossy
Stream size : 235 MiB (5%)
Language : English
Default : No
Forced : No
log:
[info]: frame I:646 Avg QP:18,59 size:131641 PSNR Mean Y:45,54 U:48,03 V:49,09 Avg:46,14 Global:45,26
[info]: frame P:27083 Avg QP:21,91 size: 53822 PSNR Mean Y:42,96 U:46,40 V:48,09 Avg:43,73 Global:42,69
[info]: frame B:95292 Avg QP:23,98 size: 27746 PSNR Mean Y:41,42 U:45,64 V:47,62 Avg:42,31 Global:41,66
[info]: consecutive B-frames: 0,9% 2,1% 5,9% 35,8% 16,8% 25,4% 5,1% 7,0% 0,4% 0,1% 0,2% 0,2% 0,0% 0,0% 0,0% 0,0% 0,0%
[info]: mb I I16..4: 5,9% 84,4% 9,6%
[info]: mb P I16..4: 0,7% 13,5% 1,0% P16..4: 32,7% 28,9% 14,9% 0,0% 0,0% skip: 8,2%
[info]: mb B I16..4: 0,1% 2,5% 0,2% B16..8: 40,1% 16,9% 5,6% direct: 8,6% skip:26,1% L0:47,4% L1:44,7% BI: 8,0%
[info]: 8x8 transform intra:89,4% inter:68,3%
[info]: coded y,uvDC,uvAC intra: 93,3% 86,9% 67,8% inter: 50,2% 41,5% 11,1%
[info]: i16 v,h,dc,p: 44% 24% 6% 26%
[info]: i8 v,h,dc,ddl,ddr,vr,hd,vl,hu: 8% 10% 4% 10% 16% 13% 16% 10% 13%
[info]: i4 v,h,dc,ddl,ddr,vr,hd,vl,hu: 7% 12% 2% 8% 16% 13% 18% 10% 15%
[info]: i8c dc,h,v,p: 49% 21% 13% 17%
[info]: Weighted P-Frames: Y:5,4% UV:3,8%
[info]: ref P L0: 33,9% 9,0% 18,3% 6,8% 6,7% 4,4% 4,7% 2,4% 2,6% 1,9% 2,1% 1,6% 1,8% 1,3% 1,6% 1,0%
[info]: ref B L0: 63,3% 12,0% 6,5% 3,7% 2,8% 2,5% 2,1% 1,4% 1,2% 1,1% 1,0% 0,9% 0,8% 0,5% 0,2%
[info]: ref B L1: 92,9% 7,1%
[info]: SSIM Mean Y:0,9533473 (13,311db)
[info]: PSNR Mean Y:41,783 U:45,822 V:47,732 Avg:42,639 Global:41,879 kb/s:6527,55
Скріншоти:
Original vs Encode




Джерело: Власний ріп +
Особиста оцінка: 10 - без зайвих вагань рекомендую всім!


 Трекер:    Зареєстрований   

Завантажити / скачати мультфільм українською



відео для новачків



 Зареєстрований:   2012-04-17 18:02
 Розмір:   4.4 GB 
 Оцінка мультфільму:   10/10 (Голосів: 20)
   
Інші релізи
   Тримай хвилю / Surf's Up (2007) Ukr | Sub Eng karvai0  7 / 0   1.44 GB   2010-11-07 00:15 
   Тримай хвилю / Surf's Up (2007) Maryena  1 / 0   1.36 GB   2008-06-18 00:49 
Gelios 
Відео Гуртом - дизайнер
Відео Гуртом - дизайнер


З нами з: 03.09.11
Востаннє: 02.08.17
Повідомлень: 2086

2012-04-17 14:39  
Більший постер:
Тримай хвилю / Surf's Up (2007)
А не вдалося записати звук із К1?

Zeus62 
Відео Гуртом - команда HD
Відео Гуртом - команда HD


З нами з: 29.12.08
Востаннє: 09.07.17
Повідомлень: 330

2012-04-17 15:40  
Цитата:
А не вдалося записати звук із К1?

Ні, ніде не бачив запису.

Gelios 
Відео Гуртом - дизайнер
Відео Гуртом - дизайнер


З нами з: 03.09.11
Востаннє: 02.08.17
Повідомлень: 2086

2012-04-17 15:49  
Zeus62 написано:
Подяка Gelios за постер.

Це офіційний постер... Wink (2)

Zeus62 
Відео Гуртом - команда HD
Відео Гуртом - команда HD


З нами з: 29.12.08
Востаннє: 09.07.17
Повідомлень: 330

2012-04-17 15:55  
Цитата:
Це офіційний постер...

Я знаю. Подяка в тому розумінні, що знайшов його і надав мені)

4erkov 
Відео Гуртом - запис з ТБ
Відео Гуртом - запис з ТБ


З нами з: 09.10.10
Востаннє: 23.08.17
Повідомлень: 1846

2012-04-17 17:57  
Доречі, якщо треба, ось і анонс з К1:

bot 
робот


З нами з: 30.09.07
Востаннє: 26.05.05
Повідомлень: 17412

2012-04-17 18:02  
Тему перенесено з Анонси релізів від Відео Гуртом до форуму Мультфільми в HD


Zeus62

Ваш часовий пояс: GMT + 2 Години

Нова тема   Відповісти