Веселі ніжки. Дилогія / Happy Feet. Dilogy (2006-2011) 720р Ukr/Eng | Sub Ukr/Eng

Нові коментарі

Нова тема   Відповісти
Автор Повідомлення
braveboy 
Відео Гуртом - команда HD
Відео Гуртом - команда HD


З нами з: 15.06.10
Востаннє: 13.08.17
Повідомлень: 949

2012-04-12 07:34  

Веселі ніжки. Дилогія / Happy Feet. Dilogy (2006-2011) 720р
Ukr/Eng | Sub Ukr/Eng


Веселі ніжки. Дилогія / Happy Feet. Dilogy (2006-2011) 720р Ukr/Eng | Sub Ukr/Eng
Веселі ніжки / Happy Feet (2006) 720р Ukr/Eng | Sub Ukr/Eng


Веселі ніжки / Happy Feet (2006) 720р Ukr/Eng | Sub Ukr/Eng




Жанр: комедія, пригодницький, сімейний, мюзикл
Країна: США, Австралія



Кіностудія / кінокомпанія: Kingdom Feature Productions, Animal Logic, Kennedy Miller Productions, Village Roadshow Pictures
Режисер: Джордж Міллер
Ролі озвучували: (в українському дубляжі) Олег (Фаґот) Михайлюта, Іван Розін, Олександр Ігнатуша, Інна Велікова
Ролі озвучували: (в оригіналі) Робін Вілльямс, Г'ю Джекмен, Ілайджа Вуд, Ніколь Кідмен, Бріттані Мерфі, Гюґо Вівінґ, Міріам Марґоліс


Сюжет:
Курчата забивають свого брата, чимось несхожого на них - так вже вони влаштовані. На жаль, тисячоліття еволюції та прогресу не змінили аналогічної звички в людському суспільстві, а у "Веселих ніжках" - і в пінгвінячому. Малюк Мамбл, який трохи примерз в яйці, що його впустив під час довгої полярної ночі його татко, саме такий вигнанець. Весь їхній рід з прадавніх часів співав - складаючи шану Великому Гвіну чи знаходячи собі кохану, і лиш Мамблу не пощастило на голос. Зате він дивно дріботить ніжками і, нахабство яке, навіть не збирається припиняти цю безглузду справу, через що рано чи пізно йому доведеться залишити зграю і піти геть - на таких несхожих завжди вішають усі проблеми суспільства, навіть зникнення риби в океані...


Тривалість: 01:48:32
Якість: 720p
Відео:
кодек:
розмір кадру: 1280 x 534
бітрейт: 4738 кб/с

Аудіо # 1:
мова: українська
переклад: професійний дубльований
кодек: 5.1
бітрейт: 384 кб/с

Аудіо # 2:
мова: англійська
переклад: оригінал
кодек: 5.1
бітрейт: 640 кб/с

Джерело озвучення:


Субтитри:
мова: українська
тип: програмні (м'які)
формат: *.srt

Субтитри:
мова: англійська
тип: програмні (м'які)
формат: *.srt
Подяка за український постер Gelios
log

[info]: frame I:1017 Avg QP:13.84 size:135939
[info]: frame P:42968 Avg QP:16.88 size: 49292
[info]: frame B:112152 Avg QP:21.22 size: 14269
[info]: consecutive B-frames: 4.0% 4.9% 14.1% 43.8% 16.2% 15.7% 1.3%
[info]: mb I I16..4: 7.5% 63.8% 28.7%
[info]: mb P I16..4: 2.4% 17.2% 3.0% P16..4: 27.9% 21.1% 15.7% 4.0% 1.4% skip: 7.2%
[info]: mb B I16..4: 0.3% 2.3% 0.5% B16..8: 33.0% 14.8% 5.1% direct: 5.7% skip:38.2% L0:36.7% L1:40.3% BI:23.0%
[info]: 8x8 transform intra:74.3% inter:48.4%
[info]: coded y,uvDC,uvAC intra: 78.1% 79.5% 54.1% inter: 28.0% 23.9% 13.7%
[info]: i16 v,h,dc,p: 38% 22% 5% 35%
[info]: i8 v,h,dc,ddl,ddr,vr,hd,vl,hu: 13% 14% 10% 7% 10% 10% 12% 10% 14%
[info]: i4 v,h,dc,ddl,ddr,vr,hd,vl,hu: 17% 11% 7% 7% 13% 12% 12% 9% 11%
[info]: i8c dc,h,v,p: 37% 32% 16% 15%
[info]: Weighted P-Frames: Y:3.9% UV:1.5%
[info]: ref P L0: 57.1% 13.5% 12.6% 5.3% 3.7% 3.0% 2.5% 2.0% 0.4% 0.0%
[info]: ref B L0: 84.9% 7.8% 3.3% 1.6% 1.2% 0.7% 0.4%
[info]: ref B L1: 94.0% 6.0%
Info
General
Unique ID : 249571972790848820214820636124606960431 (0xBBC1D045FA31E207B97A7E925F25132F)
Complete name : E:\Temp\ Happy Feet. Dilogy (2006-2011) [Ukr,Eng Sub Ukr,Eng] 720p [HURTOM] by braveboy\Happy Feet (2006) [Ukr,Eng Sub Ukr,Eng] 720p [HURTOM] by braveboy.
Format :
Format version : Version 2
File size : 4.37 GiB
Duration : 1h 48mn
Overall bit rate : 5 763 Kbps
Movie name : Happy Feet (2006) 720p by braveboy
Encoded date : UTC 2012-04-18 20:41:47
Writing application : mkvmerge v5.5.0 ('Healer') built on Apr 6 2012 21:43:24
Writing library : libebml v1.2.3 + libmatroska v1.3.0

Video
ID : 1
Format : AVC
Format/Info : Advanced Video Codec
Format profile : [email protected]
Format settings, CABAC : Yes
Format settings, ReFrames : 8 frames
Codec ID : V_MPEG4/ISO/AVC
Duration : 1h 48mn
Bit rate : 4 738 Kbps
Width : 1 280 pixels
Height : 534 pixels
Display aspect ratio : 2.40:1
Frame rate : 23.976 fps
Color space : YUV
Chroma subsampling : 4:2:0
Bit depth : 8 bits
Scan type : Progressive
Bits/(Pixel*Frame) : 0.289
Stream size : 3.51 GiB (80%)
Title : Happy Feet (2006) 720p by braveboy
Writing library : core 122 r2184 5c85e0a
Encoding settings : cabac=1 / ref=8 / deblock=1:-3:-3 / analyse=0x3:0x133 / me=umh / subme=10 / psy=1 / psy_rd=0.80:0.00 / mixed_ref=1 / me_range=34 / chroma_me=1 / trellis=2 / 8x8dct=1 / cqm=0 / deadzone=21,11 / fast_pskip=0 / chroma_qp_offset=-2 / threads=3 / sliced_threads=0 / nr=0 / decimate=0 / interlaced=0 / bluray_compat=0 / constrained_intra=0 / bframes=6 / b_pyramid=2 / b_adapt=2 / b_bias=0 / direct=1 / weightb=1 / open_gop=0 / weightp=2 / keyint=240 / keyint_min=24 / scenecut=40 / intra_refresh=0 / rc_lookahead=40 / rc=2pass / mbtree=1 / bitrate=4738 / ratetol=1.0 / qcomp=0.60 / qpmin=10 / qpmax=51 / qpstep=4 / cplxblur=20.0 / qblur=0.5 / ip_ratio=1.40 / aq=1:1.00
Default : Yes
Forced : No

Audio #1
ID : 2
Format : AC-3
Format/Info : Audio Coding 3
Mode extension : CM (complete main)
Format settings, Endianness : Big
Codec ID : A_AC3
Duration : 1h 48mn
Bit rate mode : Constant
Bit rate : 384 Kbps
Channel(s) : 6 channels
Channel positions : Front: L C R, Side: L R, LFE
Sampling rate : 48.0 KHz
Bit depth : 16 bits
Compression mode : Lossy
Stream size : 298 MiB (7%)
Title : 5.1 - 384 kbps [DVD]
Language : Ukrainian
Default : Yes
Forced : No

Audio #2
ID : 3
Format : AC-3
Format/Info : Audio Coding 3
Mode extension : CM (complete main)
Format settings, Endianness : Big
Codec ID : A_AC3
Duration : 1h 48mn
Bit rate mode : Constant
Bit rate : 640 Kbps
Channel(s) : 6 channels
Channel positions : Front: L C R, Side: L R, LFE
Sampling rate : 48.0 KHz
Bit depth : 16 bits
Compression mode : Lossy
Stream size : 497 MiB (11%)
Title : 5.1 - 640 kbps
Language : English
Default : No
Forced : No

Text #1
ID : 4
Format : UTF-8
Codec ID : S_TEXT/UTF8
Codec ID/Info : UTF-8 Plain Text
Title : Full
Language : Ukrainian
Default : No
Forced : No

Text #2
ID : 5
Format : UTF-8
Codec ID : S_TEXT/UTF8
Codec ID/Info : UTF-8 Plain Text
Title : Full
Language : English
Default : No
Forced : No

Menu
00:00:00.000 : en:00:00:00.000
00:04:42.282 : en:00:04:42.282
00:07:00.587 : en:00:07:00.587
00:11:55.548 : en:00:11:55.548
00:15:05.404 : en:00:15:05.404
00:18:15.928 : en:00:18:15.928
00:22:27.513 : en:00:22:27.513
00:27:35.988 : en:00:27:35.988
00:29:55.293 : en:00:29:55.293
00:32:48.466 : en:00:32:48.466
00:36:59.551 : en:00:36:59.551
00:39:48.386 : en:00:39:48.386
00:43:52.463 : en:00:43:52.463
00:49:13.951 : en:00:49:13.951
00:52:19.803 : en:00:52:19.803
00:56:11.868 : en:00:56:11.868
01:00:52.649 : en:01:00:52.649
01:03:49.826 : en:01:03:49.826
01:07:12.862 : en:01:07:12.862
01:10:25.555 : en:01:10:25.555
01:13:49.091 : en:01:13:49.091
01:16:39.595 : en:01:16:39.595
01:21:40.395 : en:01:21:40.395
01:25:07.102 : en:01:25:07.102
01:27:15.897 : en:01:27:15.897
01:31:30.485 : en:01:31:30.485
01:34:32.000 : en:01:34:32.000
01:38:42.416 : en:01:38:42.416
Порівняльні скріншоти
Source vs Encode




Скріншоти












720p by braveboy
Цитата:

* Source: Happy Feet (2006) Blu-ray СEE 1080p VC-1 DD5.1

* Збережено оригінальні чаптери як на Blu-Ray

Особиста оцінка: 10 - без зайвих вагань рекомендую всім!
Веселi нiжки 2 / Happy Feet Two (2011) 720p Ukr/Eng | Sub Eng


Веселi нiжки 2 / Happy Feet Two (2011) 720p Ukr/Eng | Sub Eng


Веселі ніжки. Дилогія / Happy Feet. Dilogy (2006-2011) 720р Ukr/Eng | Sub Ukr/Eng


Жанр: мультфільм, комедія, сімейний, музикальний
Країна: Австралія



Кіностудія / кінокомпанія: Kennedy Miller Mitchell / WarnerBroz
Режисер: Джордж Міллер
Актори: Елайджа Вуд, Робін Уїльямс, Хенк Азарія, Пінк, Бред Пітт, Метт Деймон, Софія Вергара, Карлос Алазракі, Ломбардо Бойяр, Джефф Гарсіа і ін.


Сюжет:
Волелюбний і незалежний Ерік отримав у спадок від батька любов до авантюрних пригод, купу амбіцій і талантів, більше того, не дивлячись на свій юний вік, він вже встиг перевершити за всіма цими характеристиками свого тата, Ерік зробив свій вибір - його кумиром стає харизматичний Могутній Свен - єдиний в світі пінгвін, що вміє літати. Розбіжності між Еріком, родиною і друзями досягають апогею, коли над спільним домом імператорських пінгвінів нависає страшна загроза. У цей момент герої мультфільму Веселі Ніжки 2 розуміють, що їхні інтереси та ідеали можна захистити тільки спільними зусиллями. Під керівництвом Мамбла об'єднуються всі пінгвіни і їх союзники, на допомогу приходять гігантські морські слони і рачки-Кріль Уілл і Білл, але чи встигнуть вони виправити становище ...


Тривалість: 01:39:29
Якість: 720p
Відео:
кодек:
розмір кадру: 1280 x 544
бітрейт: 5006 кб/с

Аудіо # 1:
мова: українська
переклад: професійний дубльований
кодек: 5.1
бітрейт: 640 кб/с

Аудіо # 2:
мова: англійська
переклад: оригінал
кодек: 5.1
бітрейт: 640 кб/с

Джерело озвучення:


Субтитри:
мова: англійська (Full, SDH)
тип: програмні (м'які)
формат: *.srt
log

[info]: frame I:1080 Avg QP:15.39 size:128934
[info]: frame P:40305 Avg QP:18.71 size: 47947
[info]: frame B:101753 Avg QP:21.86 size: 16352
[info]: consecutive B-frames: 4.6% 5.7% 10.6% 52.6% 11.1% 14.0% 1.4%
[info]: mb I I16..4: 8.3% 62.2% 29.5%
[info]: mb P I16..4: 2.3% 14.5% 4.3% P16..4: 34.0% 18.3% 15.6% 3.8% 1.7% skip: 5.5%
[info]: mb B I16..4: 0.2% 2.5% 1.3% B16..8: 36.8% 12.0% 5.0% direct: 4.8% skip:37.4% L0:38.3% L1:43.1% BI:18.6%
[info]: 8x8 transform intra:65.9% inter:51.7%
[info]: coded y,uvDC,uvAC intra: 85.3% 78.9% 52.9% inter: 30.1% 25.0% 12.6%
[info]: i16 v,h,dc,p: 27% 18% 7% 47%
[info]: i8 v,h,dc,ddl,ddr,vr,hd,vl,hu: 8% 10% 4% 9% 14% 13% 15% 12% 15%
[info]: i4 v,h,dc,ddl,ddr,vr,hd,vl,hu: 7% 8% 4% 9% 16% 14% 15% 12% 15%
[info]: i8c dc,h,v,p: 40% 25% 17% 18%
[info]: Weighted P-Frames: Y:3.4% UV:1.0%
[info]: ref P L0: 57.9% 14.6% 11.2% 5.4% 3.3% 3.1% 2.2% 1.9% 0.3% 0.0%
[info]: ref B L0: 85.5% 7.0% 3.6% 1.6% 1.2% 0.7% 0.4%
[info]: ref B L1: 94.8% 5.2%
Info
General
Unique ID : 185986913654107182239036981583153760466 (0x8BEBC6D107F3721B8A29D960963888D2)
Complete name : E:\Temp\ Happy Feet. Dilogy (2006-2011) [Ukr,Eng Sub Ukr,Eng] 720p [HURTOM] by braveboy\Happy Feet Two (2011) [Ukr,Eng Sub Eng] 720p [HURTOM] by braveboy.
Format :
Format version : Version 2
File size : 4.37 GiB
Duration : 1h 39mn
Overall bit rate : 6 286 Kbps
Movie name : Happy Feet Two (2011) 720p by braveboy
Encoded date : UTC 2012-04-18 20:49:16
Writing application : mkvmerge v5.5.0 ('Healer') built on Apr 6 2012 21:43:24
Writing library : libebml v1.2.3 + libmatroska v1.3.0

Video
ID : 1
Format : AVC
Format/Info : Advanced Video Codec
Format profile : [email protected]
Format settings, CABAC : Yes
Format settings, ReFrames : 8 frames
Codec ID : V_MPEG4/ISO/AVC
Duration : 1h 39mn
Bit rate : 5 006 Kbps
Width : 1 280 pixels
Height : 544 pixels
Display aspect ratio : 2.35:1
Frame rate : 23.976 fps
Color space : YUV
Chroma subsampling : 4:2:0
Bit depth : 8 bits
Scan type : Progressive
Bits/(Pixel*Frame) : 0.300
Stream size : 3.39 GiB (78%)
Title : Happy Feet Two (2011) 720p by braveboy
Writing library : core 122 r2184 5c85e0a
Encoding settings : cabac=1 / ref=8 / deblock=1:-3:-3 / analyse=0x3:0x133 / me=umh / subme=9 / psy=1 / psy_rd=0.80:0.00 / mixed_ref=1 / me_range=34 / chroma_me=1 / trellis=1 / 8x8dct=1 / cqm=0 / deadzone=21,11 / fast_pskip=0 / chroma_qp_offset=-2 / threads=3 / sliced_threads=0 / nr=0 / decimate=0 / interlaced=0 / bluray_compat=0 / constrained_intra=0 / bframes=6 / b_pyramid=2 / b_adapt=2 / b_bias=0 / direct=1 / weightb=1 / open_gop=0 / weightp=2 / keyint=240 / keyint_min=24 / scenecut=40 / intra_refresh=0 / rc_lookahead=40 / rc=2pass / mbtree=1 / bitrate=5006 / ratetol=1.0 / qcomp=0.60 / qpmin=10 / qpmax=51 / qpstep=4 / cplxblur=20.0 / qblur=0.5 / ip_ratio=1.40 / aq=1:1.00
Default : Yes
Forced : No

Audio #1
ID : 2
Format : AC-3
Format/Info : Audio Coding 3
Mode extension : CM (complete main)
Format settings, Endianness : Big
Codec ID : A_AC3
Duration : 1h 39mn
Bit rate mode : Constant
Bit rate : 640 Kbps
Channel(s) : 6 channels
Channel positions : Front: L C R, Side: L R, LFE
Sampling rate : 48.0 KHz
Bit depth : 16 bits
Compression mode : Lossy
Stream size : 456 MiB (10%)
Title : 5.1 - 640 kbps [Blu-ray CEE]
Language : Ukrainian
Default : Yes
Forced : No

Audio #2
ID : 3
Format : AC-3
Format/Info : Audio Coding 3
Mode extension : CM (complete main)
Format settings, Endianness : Big
Codec ID : A_AC3
Duration : 1h 39mn
Bit rate mode : Constant
Bit rate : 640 Kbps
Channel(s) : 6 channels
Channel positions : Front: L C R, Side: L R, LFE
Sampling rate : 48.0 KHz
Bit depth : 16 bits
Compression mode : Lossy
Stream size : 456 MiB (10%)
Title : 5.1 - 640 kbps
Language : English
Default : No
Forced : No

Text #1
ID : 4
Format : UTF-8
Codec ID : S_TEXT/UTF8
Codec ID/Info : UTF-8 Plain Text
Title : Full
Language : English
Default : No
Forced : No

Text #2
ID : 5
Format : UTF-8
Codec ID : S_TEXT/UTF8
Codec ID/Info : UTF-8 Plain Text
Title : SDH
Language : English
Default : No
Forced : No

Menu
00:00:00.000 : en:00:00:00.000
00:11:01.578 : en:00:11:01.578
00:19:03.184 : en:00:19:03.184
00:29:16.755 : en:00:29:16.755
00:39:12.350 : en:00:39:12.350
00:49:39.727 : en:00:49:39.727
00:58:26.461 : en:00:58:26.461
01:09:52.105 : en:01:09:52.105
01:19:59.920 : en:01:19:59.920
01:30:29.924 : en:01:30:29.924
Порівняльні скріншоти
Source vs Encode




Скріншоти










720p by braveboy
Цитата:

* Source: Happy Feet Two (2011) Blu-ray CEE 1080p AVC DD5.1

* Збережено оригінальні чаптери як на Blu-Ray

Особиста оцінка: 10 - без зайвих вагань рекомендую всім!




Бронзовий реліз (на рейтинг впливає 75% завантаженого)
 Трекер:    Зареєстрований   

Завантажити / скачати мультфільм українською



відео для новачків



 Зареєстрований:   2012-04-19 00:09
 Розмір:   8.74 GB 
 Оцінка мультфільму:   9.8/10 (Голосів: 17)
   
Інші релізи
Gelios 
Відео Гуртом - дизайнер
Відео Гуртом - дизайнер


З нами з: 03.09.11
Востаннє: 02.08.17
Повідомлень: 2086

2012-04-22 09:46  
Ось такий ще зробив Blu-Ray Box:
Веселі ніжки / Happy Feet (2006) Blu-Ray Box
і окремо лого:
лого

Snuryus 
VIP


З нами з: 24.07.10
Востаннє: 18.08.17
Повідомлень: 384

2012-05-12 10:27  
Допоможіть мені будь ласка ) Потрібно саундтрек з веселі ніжки 2 - Pink bridge of light , але саме на українській мові . ???

Додано через 9 хвилин 9 секунд:

Дякую уже знайшов Wink (1)

[email protected] 
Частий відвідувач


З нами з: 14.05.12
Востаннє: 16.06.17
Повідомлень: 38

2012-06-27 19:46  
Цитата:
Дякую уже знайшов 
Не могли б сказати де? Я теж шукаю .Наперед дякую.
kino. 
Модератор відео


З нами з: 27.06.10
Востаннє: 19.08.17
Повідомлень: 2897

2012-06-27 20:05  
[email protected] написано:
Не могли б сказати де?
ТУТ

Ваш часовий пояс: GMT + 2 Години

Нова тема   Відповісти