Десять заповідей / The Ten Commandments (2006) 720p Ukr/Eng | sub Ukr

Нові коментарі

Нова тема   Відповісти
Останній раз роздавалося MoDi90 (2020-10-22)
Автор Повідомлення
urij546724 
Відео Гуртом - фільмокрай
Відео Гуртом - фільмокрай


З нами з: 16.03.10
Востаннє: 03.12.20
Повідомлень: 5749

2012-04-08 13:08  
Десять заповідей / The Ten Commandments (2006) 720p Ukr/Eng | sub Ukr


Альтернативні постери


Слогани:
«A grand retelling of the epic story of Moses.»
«Великий переказ епічної історії Мойсея.»


Жанр: екшн, пригодницький, біографічний, драма, історичний, воєнний
Країна: США ()



Кінокомпанія / телеканал: Actuality Productions, Hallmark Entertainment, History Channel
Режисер: Роберт Дорнхельм (Robert Dornhelm)
Актори: Невін Ендрюс (Naveen Andrews), Ешлі Артус (Ashley Artus), Клер Блум (Claire Bloom), Сайлас Карсон (Silas Carson), Саймон Де Сельва (Simon De Selva), Пашал Фріл (Paschal Friel)
Усі актори і їх фото:
Невін Ендрюс (Naveen Andrews), Ешлі Артус (Ashley Artus), Клер Блум (Claire Bloom), Сайлас Карсон (Silas Carson), Саймон Де Сельва (Simon De Selva), Пашал Фріл (Paschal Friel), Пітер Гевіссер (Peter Gevisser), Патрік Гордон (Patrick Gordon), Бен Хеммерслі (Ben Hammersley), Грег Хікс (Greg Hicks), Луіс Хіліер (Louis Hilyer), Ліза Джейкобс (Lisa Jacobs), Том Келлер (Tom Keller), Падма Лакшмі (Padma Lakshmi), Сьюзен Лінч (Susan Lynch), Міа Маестро (Mía Maestro), Марина Морган (Marina Morgan), Річард О'Браян (Richard O'Brien), Пол Райс (Paul Rhys), Лайнас Роуч (Linus Roache), Руді Руджеро (Rudy Ruggiero), Карім Салах (Karim Salah), Адріан Шиллер (Adrian Schiller), Девід Шнайдер (David Schneider), Дагрей Скотт (Dougray Scott), Омар Шаріф (Omar Sharif), Меттью Сім (Matthew Sim), Ханна Тейлор-Гордон (Hannah Taylor-Gordon), Джон Варк (John Wark)




Сюжет:
Цей біблійний герой однаково вшановується іудеями, християнами і мусульманами. Мойсей - чоловік, що залишив неповторний слід в історії. Над Єгипетським царством нависнула небезпека, і, повіривши пророцтву, фараон наказав убити всіх новонароджених немовлят чоловічої статі. Але одна дитина, народжена в сім'ї євреїв-рабів, вижила.

Ввірений долі, Мойсей виріс при дворі фараона і, виконуючи волю Бога, став вождем і визволителем єврейського народу. Коли фараон Рамзес відкинув прохання відпустити євреїв з Єгипту, Мойсей попередив його, що Єгипетське царство чекає велика кара...


Збори в США: 514 000 доларів
Назва серіалу в інших країнах
Les dix commandements
Франція


Oi deka entoles
Греція


Tízparancsolat
Угорщина


Десять заповедей
Росія
Перелік серій:

01) Серія 1
02) Серія 2
Media info (1)
Format :
Format version : Version 2
File size : 4.79 GiB
Duration : 1h 27mn
Overall bit rate mode : Variable
Overall bit rate : 7 817 Kbps
Movie name : The Ten Commandments (2006) [ukr_ICTV_eng_DTS_5.1, sub] 720p [Hurtom] by urij546724
Encoded date : UTC 2012-04-08 10:06:10
Writing application : v2.9.7 ('Tenderness') built on Jul 1 2009 18:43:35
Writing library : libebml v0.7.7 + v0.8.1

Video
ID : 1
Format : AVC
Format/Info : Advanced Video Codec
Format profile : [email protected]
Format settings, CABAC : Yes
Format settings, ReFrames : 3 frames
Codec ID : V_MPEG4/ISO/AVC
Duration : 1h 27mn
Bit rate mode : Variable
Bit rate : 4 642 Kbps
Maximum bit rate : 38.0 Mbps
Width : 1 280 pixels
Height : 720 pixels
Display aspect ratio : 16:9
Frame rate : 23.976 fps
Color space : YUV
Chroma subsampling : 4:2:0
Bit depth : 8 bits
Scan type : Progressive
Bits/(Pixel*Frame) : 0.210
Stream size : 2.85 GiB (59%)
Title : The Ten Commandments (2006) [ukr_ICTV_eng_DTS_5.1, sub] 720p [Hurtom] by urij546724
Language : English
Default : Yes
Forced : No

Audio #1
ID : 2
Format :
Format/Info : Digital Theater Systems
Codec ID : A_DTS
Duration : 1h 27mn
Bit rate mode : Constant
Bit rate : 1 510 Kbps
Channel(s) : 6 channels
Channel positions : Front: L C R, Side: L R, LFE
Sampling rate : 48.0 KHz
Bit depth : 24 bits
Compression mode : Lossy
Stream size : 948 MiB (19%)
Title : Українська доріжка
Language : Ukrainian
Default : Yes
Forced : No

Audio #2
ID : 3
Format :
Format/Info : Digital Theater Systems
Codec ID : A_DTS
Duration : 1h 27mn
Bit rate mode : Constant
Bit rate : 1 510 Kbps
Channel(s) : 6 channels
Channel positions : Front: L C R, Side: L R, LFE
Sampling rate : 48.0 KHz
Bit depth : 24 bits
Compression mode : Lossy
Stream size : 948 MiB (19%)
Title : Англійська доріжка
Language : English
Default : No
Forced : No

Text
ID : 4
Format : UTF-8
Codec ID : S_TEXT/UTF8
Codec ID/Info : UTF-8 Plain Text
Title : Українські субтитри
Language : Ukrainian
Default : Yes
Forced : No
Media info (2)
Format :
Format version : Version 2
File size : 5.00 GiB
Duration : 1h 27mn
Overall bit rate mode : Variable
Overall bit rate : 8 154 Kbps
Movie name : The Ten Commandments (2006) [ukr_ICTV_eng_DTS_5.1, sub] 720p [Hurtom] by urij546724
Encoded date : UTC 2012-04-08 11:33:21
Writing application : v2.9.7 ('Tenderness') built on Jul 1 2009 18:43:35
Writing library : libebml v0.7.7 + v0.8.1

Video
ID : 1
Format : AVC
Format/Info : Advanced Video Codec
Format profile : [email protected]
Format settings, CABAC : Yes
Format settings, ReFrames : 3 frames
Codec ID : V_MPEG4/ISO/AVC
Duration : 1h 27mn
Bit rate mode : Variable
Bit rate : 4 972 Kbps
Maximum bit rate : 38.0 Mbps
Width : 1 280 pixels
Height : 720 pixels
Display aspect ratio : 16:9
Frame rate : 23.976 fps
Color space : YUV
Chroma subsampling : 4:2:0
Bit depth : 8 bits
Scan type : Progressive
Bits/(Pixel*Frame) : 0.225
Stream size : 3.05 GiB (61%)
Title : The Ten Commandments (2006) [ukr_ICTV_eng_DTS_5.1, sub] 720p [Hurtom] by urij546724
Language : English
Default : Yes
Forced : No

Audio #1
ID : 2
Format :
Format/Info : Digital Theater Systems
Codec ID : A_DTS
Duration : 1h 27mn
Bit rate mode : Constant
Bit rate : 1 510 Kbps
Channel(s) : 6 channels
Channel positions : Front: L C R, Side: L R, LFE
Sampling rate : 48.0 KHz
Bit depth : 24 bits
Compression mode : Lossy
Delay relative to video : 10ms
Stream size : 948 MiB (19%)
Title : Українська доріжка
Language : Ukrainian
Default : Yes
Forced : No

Audio #2
ID : 3
Format :
Format/Info : Digital Theater Systems
Codec ID : A_DTS
Duration : 1h 27mn
Bit rate mode : Constant
Bit rate : 1 510 Kbps
Channel(s) : 6 channels
Channel positions : Front: L C R, Side: L R, LFE
Sampling rate : 48.0 KHz
Bit depth : 24 bits
Compression mode : Lossy
Delay relative to video : 42ms
Stream size : 948 MiB (19%)
Title : Англійська доріжка
Language : English
Default : No
Forced : No

Text
ID : 4
Format : UTF-8
Codec ID : S_TEXT/UTF8
Codec ID/Info : UTF-8 Plain Text
Title : Українські субтитри
Language : Ukrainian
Default : Yes
Forced : No
Тривалість: 01:27:48+01:27:47
Якість: 720p
Відео:
кодек:
розмір кадру: 1280 х 720
бітрейт: ~ 4642-4972 кб/с
частота кадрів: 23.976 к/с (fps)

Аудіо #1:
мова: українська
переклад: двоголосий закадровий
кодек: 5.1
бітрейт: 1510 кб/с
запис звуку з каналу:

Аудіо #2:
мова: англійська
переклад: оригінал
кодек: 5.1
бітрейт: 1510 кб/с

Субтитри:
мова: українська
тип: програмні (м'які)
формат: *.srt
переклад: з російської urij546724

Скріншоти:


Трейлери:
Семпл:
Джерело 1_________Джерело 2_________Джерело 3_________Джерело 4
У випадку, якщо з усіх джерел семпл видалять, прохання повідомити мені у ПРИВАТ


Подяка:

1. Пану Merdiff і Пану karvai0 за запис звуку з ТБ.


Реліз створено: &

Особиста оцінка: Ще не дивився.

Реліз не зберігатиму, видалю після появи кількох сідів.


 Трекер:    Зареєстрований   

Завантажити / скачати серіал українською



відео для новачків



 Зареєстрований:   2012-04-08 16:14
 Розмір:   9.79 GB 
 Оцінка серіалу:   6/10 (Голосів: 9)
 Прохання залишати коментарі і не тікати з роздачі
   
robotron005 
Відео Гуртом - фільмокрай
Відео Гуртом - фільмокрай


З нами з: 29.01.09
Востаннє: 02.12.20
Повідомлень: 3386

2012-04-08 18:45  
Перенесіть у КІНО, бо це НЕ серіал.
Hurtomivets' 
Свій


З нами з: 09.01.10
Востаннє: 09.11.20
Повідомлень: 8689

2012-04-08 20:18  
robotron005 написано:
Перенесіть у КІНО, бо це НЕ серіал.

Як на мене це теж не справжній серіал. Двосерійне кіно. Переконаєш urij546724 перенесу.)

robotron005 
Відео Гуртом - фільмокрай
Відео Гуртом - фільмокрай


З нами з: 29.01.09
Востаннє: 02.12.20
Повідомлень: 3386

2012-04-08 21:12  
w2958l написано:
Переконаєш urij546724 перенесу.)


urij546724 самий головний модер?

Hurtomivets' 
Свій


З нами з: 09.01.10
Востаннє: 09.11.20
Повідомлень: 8689

2012-04-08 21:21  
Так. Але справа не в тому, хто головніший) За яким принципом точно визначити що це не серіал, або точно визначити що це фільм? Якщо urij546724 вважає, що це серіал то нехай.

п.с особисто я не бачу нічого страшного, що він в серіалах. Головне, що не в мультфільмах.)

MoDi90 
Новенький


З нами з: 26.11.13
Востаннє: 28.02.14
Повідомлень: 3

2013-11-27 18:10  
Прошу тебе, брат, я хочу копію оригінальної англійської
MoDi90 
Новенький


З нами з: 26.11.13
Востаннє: 28.02.14
Повідомлень: 3

2013-12-02 01:21  
torrent not working
Ваш часовий пояс: GMT + 2 Години

Нова тема   Відповісти