Монстр у Парижі / Un monstre à Paris (2011) 1080p 3D [OverUnder] Ukr/Fra | Line

Нові коментарі

Нова тема   Відповісти
Автор Повідомлення
dinosaurus 
Частий відвідувач


З нами з: 13.12.10
Востаннє: 17.07.17
Повідомлень: 36

2012-04-08 00:32  
Монстр у Парижі / Un monstre à Paris (2011) 1080p 3D [OverUnder] Ukr/Fra | Line

Монстр у Парижі / Un monstre à Paris (2011) 1080p 3D [OverUnder] Ukr/Fra | Line


Жанр: анімація, комедія, мелодрама
Країна: Франція



Кіностудія / кінокомпанія: Bibo Films, Europa Corp., Walking The Dog, uFilm, France 3 Cinema
Режисер: Бібо Бержерон (Bibo Bergeron)
Продюсер: Люк Бессон (Luc Besson)
Актори: (французька / англійська версії) Мат’є Шедід / Шон Ленон (Matthieu Chedid / Sean Lennon), Ванесса Параді* (Vanessa Paradis), Гад Ельмалех / Адам Гольдберг (Gad Elmaleh / Adam Goldberg), Себастьєн Дежу / Джей Харісон (Sébastien Desjours / Jay Harrington), Франсуа Клюзе / Дені Хастон (François Cluzet / Danny Huston), Людівін Сан’є / Мадлен Зіма (Ludivine Sagnier / Madeline Zima)
* Озвучила обидві версії

Сюжет:
Новий повнометражний мультфільм «Монстр в Парижі» від творця фільму «Підводна братва» Бібо Бержерона і спродюсований Люком Бессоном («Нікіта», «П'ятий елемент», «Жанна д'Арк»), розповість дивовижну історію, що відбулася в Парижі під час повені Сени в 1910 році. Герої фільму спочатку спричиняють появу "монстра", а потім змушені рятувати його, коли вияняється, що насправді він не монстр, а просто добродушна гігантська блоха з чарівним голосом. Весь фільм оповитий романтичним флером, весни та кохання, що робить його перегляд надзвичайно приємним.


Тривалість: 01:29:59
Якість:
Відео:
кодек: AVC
розмір кадру: 1920 х 2096 (обидва зображення вертикальної стереопари)
бітрейт: 11.4 мб/с

Аудіо # 1:
мова: українська |Line| від Skiff
переклад: багатоголосий закадровий
кодек: 2.0
бітрейт: 384 кб/с

Аудіо # 2:
мова: французька
переклад: оригінал
кодек: 5.1
бітрейт: 1536 кб/с
Info
Video
ID : 1
Format : AVC
Format/Info : Advanced Video Codec
Format profile : [email protected]
Format settings, CABAC : Yes
Format settings, ReFrames : 4 frames
Codec ID : V_MPEG4/ISO/AVC
Duration : 1h 29mn
Bit rate : 8 550 Kbps
Width : 1 920 pixels
Height : 2 096 pixels
Display aspect ratio : 0.916
Frame rate : 23.976 fps
Color space : YUV
Chroma subsampling : 4:2:0
Bit depth : 8 bits
Scan type : Progressive
Bits/(Pixel*Frame) : 0.089
Stream size : 5.37 GiB (80%)
Writing library : core 120 r2145 748fe16
Encoding settings : cabac=1 / ref=4 / deblock=1:-3:-3 / analyse=0x3:0x113 / me=umh / subme=10 / psy=1 / psy_rd=1.00:0.00 / mixed_ref=1 / me_range=16 / chroma_me=1 / trellis=2 / 8x8dct=1 / cqm=0 / deadzone=21,11 / fast_pskip=1 / chroma_qp_offset=-5 / threads=9 / sliced_threads=0 / nr=0 / decimate=1 / interlaced=0 / bluray_compat=0 / constrained_intra=0 / bframes=6 / b_pyramid=0 / b_adapt=2 / b_bias=0 / direct=3 / weightb=1 / open_gop=0 / weightp=2 / keyint=250 / keyint_min=23 / scenecut=40 / intra_refresh=0 / rc_lookahead=40 / rc=crf / mbtree=1 / crf=18.0 / qcomp=0.60 / qpmin=0 / qpmax=69 / qpstep=4 / ip_ratio=1.40 / aq=1:1.00
Default : No
Forced : No

Audio #1
ID : 2
Format : AC-3
Format/Info : Audio Coding 3
Mode extension : CM (complete main)
Codec ID : A_AC3
Duration : 1h 29mn
Bit rate mode : Constant
Bit rate : 384 Kbps
Channel(s) : 2 channels
Channel positions : Front: L R
Sampling rate : 48.0 KHz
Bit depth : 16 bits
Compression mode : Lossy
Stream size : 247 MiB (4%)
Language : Ukrainian
Default : Yes
Forced : No

Audio #2
ID : 3
Format :
Format/Info : Digital Theater Systems
Codec ID : A_DTS
Duration : 1h 29mn
Bit rate mode : Constant
Bit rate : 1 510 Kbps
Channel(s) : 6 channels
Channel positions : Front: L C R, Side: L R, LFE
Sampling rate : 48.0 KHz
Bit depth : 24 bits
Compression mode : Lossy
Delay relative to video : 11ms
Stream size : 972 MiB (14%)
Language : French
Default : No
Forced : No
Скріншоти
Скріншоти (верхнє (для лівого ока) зображення стереопари)






Скріншоти у 3D (стереопари)**




** Для перегляду необхідне спеціальне програмне забезпечення. Дивитись: Інструкції щодо перегляду відео у форматі 3D




Джерело: &

Особиста оцінка: 10 - без зайвих вагань рекомендую всім!


 Трекер:    Зареєстрований   

Завантажити / скачати мультфільм українською



відео для новачків



 Зареєстрований:   2012-04-08 21:01
 Розмір:   6.7 GB 
 Оцінка мультфільму:   10/10 (Голосів: 7)
   
Інші релізи
bot 
робот


З нами з: 30.09.07
Востаннє: 26.05.05
Повідомлень: 17366

2012-04-08 20:26  
Тему перенесено з Неоформлене відео до форуму Мультфільми в HD


w2958l

БодікД 
Свій


З нами з: 24.12.10
Востаннє: 18.08.17
Повідомлень: 55

2012-04-11 00:34  
Агов! А де Всі? Тук Тук...........
lasmen 
VIP


З нами з: 09.12.11
Востаннє: 11.08.13
Повідомлень: 625

2012-04-11 01:41  
А на звичайному буде працювати? тобто не в 3д
dinosaurus 
Частий відвідувач


З нами з: 13.12.10
Востаннє: 17.07.17
Повідомлень: 36

2012-04-13 00:06  
lasmen написано:
А на звичайному буде працювати? тобто не в 3д

в 2D ви можете переглядати, верхнє (для лівого ока) чи нижнє зображення, але в звичайних плеєрах є трохи мороки, щоб то налаштувати: демонструю коротку інструкцію для Media Player Classic з кодекпака KLite, так, по-ідеї у всіх що застосовують ffdshow video decoder.

  1. Відкриваємо налаштування ffdshow video decoder
  2. Вибираємо та позначаємо чекбокс-групу налаштувань "Crop"
  3. Позначаємо чекбокс "Crop & zoom"
  4. Обираємо радіокнопку "Crop"
  5. Вводимо значення 1048 (висота кадра) у поле "Bottom" (якщо у поле "Top" - показуватиме нижній ("правий") кадр)
  6. Підтверджуємо налаштування
Ілюстрація
УВАГА!
Вказане стосується не тільки поточного сеансу роботи, тому подивившись фільм треба зняти чекбокс з пункту 2, бо "вузькі" фільми (не стереопари) обтинатимуться, що їм на користь не піде Wide grin .

Висновок
Чому так складно? Той фільм (як і всі стереопари) призначений для перегляду 3D-плеєрами. У них 3D та 2D перемикається одним кліком по відповідній кнопці.

Я використовую CyberLink PowerDVD 11 (на трекері бачив версію 10, теж підійде), також добре працює на Arcsoft TotalMedia Theatre 5.

PS: Вибачаюсь за відповідь аж через день, на роботі був завал, за сайтом не слідкував

Ваш часовий пояс: GMT + 2 Години

Нова тема   Відповісти