Веселi нiжки 2 / Happy Feet Two (2011) 1080p Ukr/Eng | Sub Eng | Ліцензія

Нові коментарі

Нова тема   Відповісти
Автор Повідомлення
Anonymous 







2012-03-31 16:22  
Веселi нiжки 2 / Happy Feet Two (2011) 1080p Ukr/Eng | Sub Eng | Ліцензія

Веселi нiжки 2 / Happy Feet Two (2011) 1080p Ukr/Eng | Sub Eng | Ліцензія
Оригінальний постер:
Веселi нiжки 2 / Happy Feet Two (2011) 1080p Ukr/Eng | Sub Eng | Ліцензія


Жанр: анімація, комедія, сімейний
Країна: Австралія



Кіностудія / кінокомпанія: Warner Bros. Pictures, Village Roadshow Pictures, Kennedy Miller Mitchell
Режисер: Джордж Міллер
Актори: Елайджа Вуд, Робін Уїльямс, Хенк Азарія, Пінк, Бред Пітт, Метт Деймон, Софія Вергара, Карлос Алазракі, Ломбардо Бойяр, Джефф Гарсіа і ін.

Сюжет:
Волелюбний і незалежний Ерік отримав у спадок від батька любов до авантюрних пригод, купу амбіцій і талантів, більше того, не дивлячись на свій юний вік, він вже встиг перевершити за всіма цими характеристиками свого тата, Ерік зробив свій вибір - його кумиром стає харизматичний Могутній Свен - єдиний в світі пінгвін, що вміє літати. Розбіжності між Еріком, родиною і друзями досягають апогею, коли над спільним домом імператорських пінгвінів нависає страшна загроза. У цей момент герої мультфільму Веселі Ніжки 2 розуміють, що їхні інтереси та ідеали можна захистити тільки спільними зусиллями. Під керівництвом Мамбла об'єднуються всі пінгвіни і їх союзники, на допомогу приходять гігантські морські слони і рачки-Кріль Уілл і Білл, але чи встигнуть вони виправити становище ...


Тривалість: 01:39:30
Якість: [HD-China]
Відео:
кодек:
розмір кадру: 1920x816
бітрейт: 12.4 мб/с

Аудіо # 1:
мова: українська
переклад: професійний дубльований
кодек: 5.1
бітрейт: 640 кб/с

Аудіо # 2:
мова: англійська
переклад: оригінал
кодек: 5.1
бітрейт: 1510 кб/с

Джерело озвучення:


Субтитри:
мова: англійська
тип: програмні (м'які)
формат: *.srt

Info

Format :
File size : 10.3 GiB
Duration : 1h 39mn
Overall bit rate : 14.8 Mbps
Encoded date : UTC 2012-03-31 12:59:12
Writing application : mkvmerge v2.4.2 ('Oh My God') built on Jan 18 2009 17:30:28
Writing library : libebml v0.7.7 + libmatroska v0.8.1
Video #1
ID : 1
Format : AVC
Format/Info : Advanced Video Codec
Format profile : [email protected]
Format settings, CABAC : Yes
Format settings, ReFrames : 5 frames
Muxing mode : Container [email protected]
Codec ID : V_MPEG4/ISO/AVC
Duration : 1h 39mn
Bit rate : 12.4 Mbps
Nominal bit rate : 12.6 Mbps
Width : 1 920 pixels
Height : 816 pixels
Display aspect ratio : 2.35:1
Frame rate : 23.976 fps
Resolution : 24 bits
Colorimetry : 4:2:0
Scan type : Progressive
Bits/(Pixel*Frame) : 0.329
Stream size : 8.58 GiB (83%)
Writing library : core 120 r2164 da19765
Encoding settings : cabac=1 / ref=5 / deblock=1:-2:-2 / analyse=0x3:0x133 / me=umh / subme=10 / psy=1 / psy_rd=0.95:0.00 / mixed_ref=1 / me_range=64 / chroma_me=1 / trellis=2 / 8x8dct=1 / cqm=0 / deadzone=21,11 / fast_pskip=0 / chroma_qp_offset=-2 / threads=12 / sliced_threads=0 / nr=0 / decimate=0 / interlaced=0 / bluray_compat=0 / constrained_intra=0 / bframes=7 / b_pyramid=2 / b_adapt=2 / b_bias=0 / direct=3 / weightb=1 / open_gop=0 / weightp=2 / keyint=240 / keyint_min=24 / scenecut=40 / intra_refresh=0 / rc=2pass / mbtree=0 / bitrate=12650 / ratetol=1.0 / qcomp=0.70 / qpmin=0 / qpmax=69 / qpstep=4 / cplxblur=20.0 / qblur=0.5 / ip_ratio=1.40 / pb_ratio=1.25 / aq=1:1.20
Language : English
Audio #2
ID : 2
Format : AC-3
Format/Info : Audio Coding 3
Codec ID : A_AC3
Duration : 1h 39mn
Bit rate mode : Constant
Bit rate : 640 Kbps
Channel(s) : 6 channels
Channel positions : Front: L C R, Surround: L R, LFE
Sampling rate : 48.0 KHz
Stream size : 456 MiB (4%)
Language : Ukrainian
Audio #3
ID : 3
Format :
Format/Info : Digital Theater Systems
Codec ID : A_DTS
Duration : 1h 39mn
Bit rate mode : Constant
Bit rate : 1 510 Kbps
Channel(s) : 6 channels
Channel positions : Front: L C R, Surround: L R, LFE
Sampling rate : 48.0 KHz
Resolution : 16 bits
Video delay : 11ms
Stream size : 1.05 GiB (10%)
Language : English
Text #4
ID : 4
Format : UTF-8
Codec ID : S_TEXT/UTF8
Codec ID/Info : UTF-8 Plain Text
Language : English
Скріншоти




Особиста оцінка: не дивився


 Трекер:    Зареєстрований   

Завантажити / скачати мультфільм українською



відео для новачків



 Зареєстрований:   2012-03-31 16:22
 Розмір:   10.29 GB 
 Оцінка мультфільму:   5.5/10 (Голосів: 20)
   
Інші релізи
   Веселi нiжки 2 / Happy Feet Two (2011) DVD5 Eng/Rus/Ukr Beffis  3 / 0   4.28 GB   2012-05-24 18:33 
   Веселi нiжки 2 / Happy Feet Two (2011) |Ліцензія sstonecold1  2 / 0   1.8 GB   2012-03-30 20:08 
Дмитро митро 
Відео Гуртом - дизайнер
Відео Гуртом - дизайнер


З нами з: 18.02.09
Востаннє: 14.08.17
Повідомлень: 713

2012-03-31 18:05  
Гість, раджу подивитися дуже гарний мультфільм.
Anonymous 







2012-03-31 18:15  
Дмитро митро
авжеж гляну) як буде час

inki 
VIP


З нами з: 25.10.09
Востаннє: 23.07.17
Повідомлень: 380

2012-04-01 08:59  
Цитата:
[HD-China]

шо воно тааке?

leroykendall 
Модератор HD


З нами з: 03.01.11
Востаннє: 04.08.17
Повідомлень: 750

2012-04-01 09:24  
inki
HD-China - це відома реліз група, яка займається створенням відео ріпів.

loren1 
Частий відвідувач


З нами з: 09.02.10
Востаннє: 10.08.17
Повідомлень: 49

2012-04-22 16:39  
Можливо хтось знає, де можна знайти українські саундтреки до мультфільму?
-VJ- 
VIP


З нами з: 01.11.09
Востаннє: 18.08.17
Повідомлень: 613

2012-05-01 17:10  
loren1

Таке знайти практично нереально - я не знаю жодного разу, коли б український OST взагалі робили.
Хоча можливостей було більш ніж досить - чого один "Теркель" вартий був.

bot 
робот


З нами з: 30.09.07
Востаннє: 26.05.05
Повідомлень: 17363

2012-09-21 14:27  
Тему перенесено з Мультфільми в HD до форуму Неоформлене відео


urij546724

Ваш часовий пояс: GMT + 2 Години

Нова тема   Відповісти